<?xml version="1.0" standalone="no"?>
<!DOCTYPE svg PUBLIC "-//W3C//DTD SVG 1.1//EN" "http://www.w3.org/Graphics/SVG/1.1/DTD/svg11.dtd" >
<svg xmlns="http://www.w3.org/2000/svg" xmlns:xlink="http://www.w3.org/1999/xlink" version="1.1">
<metadata>
Created by FontForge 20201107 at Wed Jan 11 11:12:28 2023
 By 
Copyright (c) 2022, Bambang Setiawan / Hujan Type
</metadata>
<defs>
<font id="Astonpoliz" horiz-adv-x="571" >
  <font-face 
    font-family="Astonpoliz"
    font-weight="400"
    font-stretch="normal"
    units-per-em="1000"
    panose-1="2 0 5 3 0 0 0 0 0 0"
    ascent="800"
    descent="-200"
    x-height="499"
    cap-height="700"
    bbox="-74 -310 1134 925"
    underline-thickness="50"
    underline-position="-100"
    unicode-range="U+0020-25CA"
  />
<missing-glyph horiz-adv-x="364" 
d="M33 0v666h265v-666h-265zM66 33h199v600h-199v-600z" />
    <glyph glyph-name=".notdef" horiz-adv-x="364" 
d="M33 0v666h265v-666h-265zM66 33h199v600h-199v-600z" />
    <glyph glyph-name=".null" horiz-adv-x="0" 
 />
    <glyph glyph-name="nonmarkingreturn" horiz-adv-x="333" 
 />
    <glyph glyph-name="space" unicode=" " horiz-adv-x="270" 
 />
    <glyph glyph-name="exclam" unicode="!" horiz-adv-x="248" 
d="M49 100h110v-100h-110v100zM41 700h127l-13 -527h-101z" />
    <glyph glyph-name="quotedbl" unicode="&#x22;" horiz-adv-x="329" 
d="M163 700h107v-96l-39 -117h-52l47 106h-63v107zM30 700h107v-96l-39 -117h-52l47 106h-63v107z" />
    <glyph glyph-name="numbersign" unicode="#" horiz-adv-x="776" 
d="M326 430l-54 -196h168l54 196h-168zM321 700h80l-55 -200h168l55 200h80l-55 -200h132v-70h-152l-54 -196h160v-70h-179l-46 -164h-80l46 164h-168l-46 -164h-80l46 164h-123v70h142l54 196h-150v70h170z" />
    <glyph glyph-name="dollar" unicode="$" horiz-adv-x="680" 
d="M302 800h80v-169q68 -7 130.5 -37.5t108.5 -77.5l-68 -65q-28 28 -75.5 55t-95.5 35v-192q44 -11 73 -19.5t66 -24t58.5 -32.5t36.5 -43t15 -58q0 -53 -36.5 -95.5t-92.5 -65t-120 -24.5v-161h-80v167q-136 22 -242 100l71 70q87 -61 171 -75v186q-39 10 -67.5 19.5
t-60.5 25t-52 33t-33 43.5t-13 57q0 48 34.5 87.5t85 62t106.5 29.5v169zM302 370v171q-18 -2 -35.5 -7t-40 -14t-36.5 -26t-14 -39q0 -30 32.5 -49.5t93.5 -35.5zM382 254v-170q149 7 149 81q0 31 -35.5 50t-113.5 39z" />
    <glyph glyph-name="percent" unicode="%" horiz-adv-x="838" 
d="M631 254q-77 0 -77 -92q0 -44 20.5 -70.5t56.5 -26.5q76 0 76 97q0 46 -18 69t-58 23zM631 329h2q74 0 114.5 -47t40.5 -120q0 -76 -38 -124t-119 -48q-80 0 -119 48.5t-39 123.5q0 73 40.5 119.5t117.5 47.5zM208 635q-77 0 -77 -92q0 -44 20 -70.5t57 -26.5q76 0 76 97
q0 46 -18 69t-58 23zM631 700h113l-531 -700h-113zM208 710h2q74 0 114.5 -47t40.5 -120q0 -76 -38 -124t-119 -48q-80 0 -119 48.5t-39 123.5q0 74 40 120t118 47z" />
    <glyph glyph-name="ampersand" unicode="&#x26;" horiz-adv-x="722" 
d="M551 371l100 -5q-3 -46 -35 -110.5t-66 -97.5l123 -137l-72 -70l-119 132q-51 -49 -102 -71.5t-127 -22.5h-29q-85 4 -129.5 38t-44.5 87q0 31 8 59t18.5 47.5t32 43t35 36t41.5 36t40 34.5q-26 31 -42.5 53.5t-35 60.5t-19.5 70q1 65 51 110t137 45q71 0 120.5 -38
t49.5 -110q0 -84 -124 -194l131 -146q34 46 58 150zM280 308q-4 -4 -22 -19t-25.5 -21.5t-22 -20.5t-22 -24t-16 -23.5t-12.5 -26.5t-4 -27q0 -22 18.5 -39t48.5 -19q11 -1 22 -1q55 0 104 16t79 41zM307 429q33 27 56 64.5t23 59.5q0 30 -22 49t-49 20q-34 0 -59.5 -20
t-25.5 -61q0 -10 9 -26.5t18 -28t24.5 -29t16.5 -18.5z" />
    <glyph glyph-name="quotesingle" unicode="'" horiz-adv-x="196" 
d="M30 700h107v-96l-39 -117h-52l47 106h-63v107z" />
    <glyph glyph-name="parenleft" unicode="(" horiz-adv-x="382" 
d="M232 780h90q-81 -137 -121 -260t-40 -245q0 -234 161 -524h-90q-93 158 -137.5 283t-44.5 241t44.5 236.5t137.5 268.5z" />
    <glyph glyph-name="parenright" unicode=")" horiz-adv-x="342" 
d="M100 780q94 -148 138 -268.5t44 -236.5t-44.5 -241t-137.5 -283h-90q161 290 161 524q0 122 -40 245t-121 260h90z" />
    <glyph glyph-name="asterisk" unicode="*" horiz-adv-x="339" 
d="M145 700h50l-5 -70l1 -1l71 50l27 -42l-80 -46v-2l80 -46l-27 -42l-71 50l-1 -1l5 -70h-50l4 70l-1 1l-71 -50l-27 42l81 46v2l-81 46l27 42l71 -50l1 1z" />
    <glyph glyph-name="plus" unicode="+" horiz-adv-x="599" 
d="M550 390v-80h-205v-210h-90v210h-205v80h205v210h90v-210h205z" />
    <glyph glyph-name="comma" unicode="," horiz-adv-x="220" 
d="M40 120h120v-108l-44 -132h-58l53 120h-71v120z" />
    <glyph glyph-name="hyphen" unicode="-" horiz-adv-x="549" 
d="M500 390v-80h-450v80h450z" />
    <glyph glyph-name="period" unicode="." horiz-adv-x="240" 
d="M40 120h120v-120h-120v120z" />
    <glyph glyph-name="slash" unicode="/" horiz-adv-x="495" 
d="M351 780h95l-311 -967h-95z" />
    <glyph glyph-name="zero" unicode="0" horiz-adv-x="646" 
d="M323.5 610q-34.5 0 -62 -9t-45 -23.5t-30.5 -37t-20 -43t-10.5 -49.5t-4.5 -49.5t-1 -48.5q0 -35 4 -67.5t15.5 -69t29.5 -62.5t50 -43.5t74 -17.5q46 0 79.5 17.5t51 42.5t28 63t13 68t2.5 68q0 28 -1 48t-4.5 49.5t-10.5 50t-19.5 43.5t-30.5 37t-45.5 23.5t-62 9.5z
M323 710q52 0 93.5 -12.5t69.5 -32.5t49 -50t32.5 -60t18.5 -68.5t9 -69.5t2 -68q0 -36 -2.5 -67.5t-9.5 -69.5t-18.5 -68t-32.5 -60t-49 -49.5t-69.5 -32t-92.5 -12.5q-66 0 -117 23.5t-80 59t-46.5 86t-23.5 95.5t-6 96t6 96t23.5 95.5t46.5 86t79.5 59t117.5 23.5z" />
    <glyph glyph-name="one" unicode="1" horiz-adv-x="294" 
d="M50 700h195v-700h-101v610h-94v90z" />
    <glyph glyph-name="two" unicode="2" horiz-adv-x="649" 
d="M302 711h13q73 0 134 -21.5t99 -65.5t38 -102q0 -86 -84 -187q-50 -61 -123.5 -122t-121.5 -91l-49 -30v-2q66 8 99 10q43 2 119 2l174 -2v-99h-550v74q16 11 43 30t96.5 74t124 104t102.5 107.5t55 98.5q1 6 1 13q0 45 -43.5 80t-126.5 35q-53 0 -98 -22t-76 -57l-67 74
q85 94 241 99z" />
    <glyph glyph-name="three" unicode="3" horiz-adv-x="616" 
d="M266 709h6q113 0 183.5 -54.5t71.5 -144.5q0 -46 -22.5 -76t-66.5 -61q109 -62 109 -171q0 -44 -14.5 -80t-46.5 -67t-90.5 -48.5t-140.5 -17.5h-5q-72 0 -139.5 25.5t-110.5 72.5l67 74q29 -32 79.5 -55.5t98.5 -23.5q5 0 10 1q9 -1 17 -1q70 0 119 34t49 86
q0 62 -42.5 90.5t-112.5 28.5q-10 0 -32 -0.5t-39 -1.5h-17v89q65 -2 88 -2q12 0 25 1t34 7.5t36.5 17.5t27.5 32t12 50q0 27 -16 47.5t-38.5 30.5t-45 15.5t-38.5 6.5l-16 1h-10q-48 0 -98.5 -23.5t-79.5 -56.5l-67 74q42 47 108.5 73.5t135.5 26.5h11z" />
    <glyph glyph-name="four" unicode="4" horiz-adv-x="634" 
d="M414 584q-6 -18 -19 -34l-245 -302h259v299q0 8 1.5 17.5t3.5 14.5l1 5h-1zM401 700h109v-452h75v-95h-75v-153h-101v153h-369v103z" />
    <glyph glyph-name="five" unicode="5" horiz-adv-x="647" 
d="M150 700h421v-103h-339l-41 -198q100 52 192 52q96 0 155.5 -57t59.5 -161q0 -14 -1 -29q-8 -94 -76.5 -154t-198.5 -60h-17h-5q-71 0 -139 26t-111 74l67 74q29 -33 79.5 -57t98.5 -24q5 0 10 1h6q65 0 118 32t61 88q2 15 2 28q0 62 -41.5 91.5t-106.5 29.5
q-49 0 -101 -15.5t-93 -40.5l-67 74z" />
    <glyph glyph-name="six" unicode="6" horiz-adv-x="619" 
d="M324 89q69 0 116.5 38t47.5 100q0 139 -154 139h-10q-49 -1 -82 -11t-51 -29t-24.5 -42t-6.5 -56q0 -69 44.5 -104t119.5 -35zM324 -11h-1q-117 0 -190 62.5t-78 178.5q-6 106 -6 115q0 66 9 120t23.5 91.5t36 65.5t44 44t50.5 26t52 13.5t52 3.5h2q87 0 144 -19.5
t117 -64.5l-67 -74q-44 32 -83 47.5t-102 15.5h-3q-81 -1 -122.5 -44.5t-41.5 -112.5v-62l2 -1q54 72 162 72q56 0 104 -13.5t85.5 -41.5t58.5 -75t21 -109q0 -109 -75.5 -173.5t-193.5 -64.5z" />
    <glyph glyph-name="seven" unicode="7" horiz-adv-x="643" 
d="M50 700h544v-71l-312 -629h-111l297 604h-419z" />
    <glyph glyph-name="eight" unicode="8" horiz-adv-x="645" 
d="M157 192q0 -50 52 -84.5t114 -34.5q64 0 114.5 32.5t50.5 88.5q0 59 -50 96.5t-115 37.5q-66 0 -116 -38t-50 -98zM323 621h-3q-24 0 -46.5 -5t-45.5 -15.5t-37 -32t-14 -50.5v-7q3 -53 45.5 -82.5t99.5 -29.5h1q57 0 100 29.5t45 82.5q1 3 1 6q0 30 -15.5 52t-39.5 32
t-46.5 14.5t-44.5 5.5zM575 511q0 -78 -88 -137q108 -56 108 -182q0 -92 -73 -147.5t-199 -56.5h-2q-123 0 -194 56t-77 148v8q0 46 29.5 93t78.5 81q-88 60 -88 137q1 64 38 110.5t92.5 67t120.5 20.5h2q66 0 121.5 -20.5t93 -66.5t37.5 -111z" />
    <glyph glyph-name="nine" unicode="9" horiz-adv-x="619" 
d="M310 608q-69 0 -117 -38t-48 -101q0 -139 155 -139h10q49 2 82 12t50.5 29t24.5 42t7 56q0 69 -45 104t-119 35zM310 708h1q118 0 193 -63t75 -178v-224q0 -129 -71.5 -191.5t-197.5 -62.5q-19 0 -42.5 2.5t-63 11t-80 30.5t-70.5 55l68 74q29 -33 81 -56t102 -23h5
q163 4 163 157v58l-1 1q-52 -69 -163 -69q-56 0 -103.5 14t-85 42t-59 75t-21.5 108q0 109 76 174t194 65z" />
    <glyph glyph-name="colon" unicode=":" horiz-adv-x="230" 
d="M50 119h120v-120h-120v120zM50 499h120v-120h-120v120z" />
    <glyph glyph-name="semicolon" unicode=";" horiz-adv-x="230" 
d="M50 119h120v-108l-44 -132h-58l53 120h-71v120zM50 499h120v-120h-120v120z" />
    <glyph glyph-name="less" unicode="&#x3c;" horiz-adv-x="599" 
d="M550 607v-87l-407 -169v-4l407 -168v-87l-500 217v80z" />
    <glyph glyph-name="equal" unicode="=" horiz-adv-x="599" 
d="M50 290h500v-80h-500v80zM50 490h500v-80h-500v80z" />
    <glyph glyph-name="greater" unicode="&#x3e;" horiz-adv-x="599" 
d="M50 608l500 -218v-80l-500 -217v87l407 168v4l-407 169v87z" />
    <glyph glyph-name="question" unicode="?" horiz-adv-x="635" 
d="M247 100h110v-100h-110v100zM358 229q-4 -9 -5.5 -25.5t-2.5 -28.5v-12h-99q0 67 12 97q10 26 33 52t48.5 46.5t50 41t40 44t15.5 46.5v1q0 21 -9 42t-27 40t-50.5 31t-74.5 12h-8q-106 -3 -174 -79l-67 74q89 98 237 98h4q68 -1 131.5 -22.5t107.5 -64t44 -96.5
q0 -46 -17.5 -82t-44 -61t-54.5 -46.5t-53.5 -49t-36.5 -58.5z" />
    <glyph glyph-name="at" unicode="@" horiz-adv-x="914" 
d="M457 445q-63 0 -104 -44t-41 -109t41 -109.5t104 -44.5t105.5 44.5t42.5 109t-42.5 109t-105.5 44.5zM50 286q0 95 33.5 175.5t90 134t131.5 83t158 29.5q97 0 190 -40q42 -18 76 -45t55.5 -55.5t37.5 -62.5t23.5 -61t12 -55t5.5 -41.5t1 -23.5q0 -13 -1 -26
q-3 -38 -6.5 -63.5t-12.5 -56.5t-25.5 -54.5t-42.5 -40.5t-84 -17h-91v58q-78 -70 -156 -70h-4q-104 3 -164.5 70.5t-60.5 167.5q0 103 67.5 169t173.5 66q43 -1 83 -15t75 -41t56 -73.5t21 -105.5v-152q19 1 29 2.5t25.5 10.5t23 26.5t13.5 51.5t6 83q0 82 -36 161
q-39 86 -129 124q-80 34 -161 34q-68 0 -128.5 -23.5t-107.5 -66.5t-75 -108.5t-28 -145.5q0 -88 26 -156t71.5 -109.5t103.5 -62t126 -20.5q70 0 138.5 22.5t120.5 64.5l47 -59q-63 -50 -142.5 -76.5t-161.5 -26.5t-154 26.5t-128 77t-88.5 132t-32.5 184.5z" />
    <glyph glyph-name="A" unicode="A" horiz-adv-x="657" 
d="M329 621q-47 0 -86 -17t-66 -57t-27 -97v-169h348v169q0 78 -45.5 124t-123.5 47zM50 450q0 46 17 91t49.5 83.5t88 62t124.5 23.5t122.5 -20.5t86 -57t49 -82.5t16.5 -100v-450h-105v196h-348v-196h-100v450z" />
    <glyph glyph-name="B" unicode="B" horiz-adv-x="605" 
d="M293 323h-70h-73v-233h143q69 0 117 27.5t48 80.5q0 62 -47 93.5t-118 31.5zM293 610h-143v-202h73h70q67 0 101 25.5t34 81.5q0 45 -35.5 70t-99.5 25zM50 700h81.5h82.5h79q66 0 114 -14.5t75.5 -40.5t40 -57.5t12.5 -69.5q0 -45 -22 -78.5t-66 -64.5q71 -39 95 -79
t24 -95q0 -88 -69 -144.5t-204 -56.5h-63h-70.5h-71.5h-38v700z" />
    <glyph glyph-name="C" unicode="C" horiz-adv-x="645" 
d="M368 709q72 0 123 -23.5t97 -75.5l-64 -66q-37 36 -71 53.5t-85 17.5q-63 0 -117.5 -39.5t-85 -100.5t-30.5 -126t30.5 -126.5t85 -100.5t117.5 -39q50 0 96 22t77 61l74 -67q-46 -52 -109.5 -81t-137.5 -29q-97 0 -175 48.5t-120.5 130.5t-42.5 180.5t42.5 181
t120.5 131t175 48.5z" />
    <glyph glyph-name="D" unicode="D" horiz-adv-x="621" 
d="M293 606h-143v-512h143q47 0 82 21t54 58t28 81t9 96t-9 95.5t-28 81t-54 58.5t-82 21zM50 700h81h81h81q72 0 126.5 -26.5t87 -74.5t48.5 -110.5t16 -138.5t-16 -138.5t-48.5 -110.5t-87 -74.5t-126.5 -26.5h-96.5h-105.5h-41v700z" />
    <glyph glyph-name="E" unicode="E" horiz-adv-x="577" 
d="M310 700h192v-90h-192q-71 0 -115.5 -45t-44.5 -116v-43h321v-85h-321v-72q0 -71 44.5 -114.5t115.5 -43.5h207v-91h-207q-108 0 -184 71.5t-76 177.5v200q0 106 76 178.5t184 72.5z" />
    <glyph glyph-name="F" unicode="F" horiz-adv-x="512" 
d="M310 700h192v-90h-192q-71 0 -115.5 -45t-44.5 -116v-71h321v-85h-321v-294h-104v450q0 106 78 178.5t186 72.5z" />
    <glyph glyph-name="G" unicode="G" horiz-adv-x="665" 
d="M368 709q72 0 123 -23.5t97 -75.5l-67 -74q-34 39 -68 59t-85 20q-63 0 -117.5 -39.5t-85 -100.5t-30.5 -126t30.5 -126.5t85 -100.5t117.5 -39q84 0 147 55v140h-192v85h292v-32v-232q-46 -52 -109.5 -81t-137.5 -29q-97 0 -175 48.5t-120.5 130.5t-42.5 180.5t42.5 181
t120.5 131t175 48.5z" />
    <glyph glyph-name="H" unicode="H" horiz-adv-x="658" 
d="M50 700h105v-281h348v281h105v-700h-105v334h-348v-334h-105v700z" />
    <glyph glyph-name="I" unicode="I" horiz-adv-x="205" 
d="M50 0v700h105v-700h-105z" />
    <glyph glyph-name="J" unicode="J" horiz-adv-x="526" 
d="M366 700h105v-510q0 -200 -221 -200h-7q-95 1 -148.5 45t-64.5 111l97 26q9 -46 42 -69.5t73 -23.5q76 0 100 29t24 110v10v472z" />
    <glyph glyph-name="K" unicode="K" horiz-adv-x="615" 
d="M50 700h105v-368l307 368h116l-238 -289l274 -411h-129l-217 326l-113 -139v-187h-105v700z" />
    <glyph glyph-name="L" unicode="L" horiz-adv-x="517" 
d="M55 700h105v-451q0 -75 42 -116.5t118 -41.5h173v-91h-173q-118 0 -191.5 64t-73.5 185v451z" />
    <glyph glyph-name="M" unicode="M" horiz-adv-x="773" 
d="M50 700h121l205 -456l12 -24l209 480h127v-700h-106q-1 147 -1 293q0 119 1 192l2 70l-2 1q-30 -68 -45 -101q-25 -54 -63 -143t-64 -150l-25 -62h-89q-67 150 -100 225q-33 76 -55.5 130t-27.5 71l-5 16l-2 -1q0 -3 0.5 -15t1.5 -31.5t2 -38.5q1 -70 1 -174l-1 -282h-96
v700z" />
    <glyph glyph-name="N" unicode="N" horiz-adv-x="658" 
d="M50 700h106l357 -536v536h95v-700h-105l-357 536v-536h-96v700z" />
    <glyph glyph-name="O" unicode="O" horiz-adv-x="718" 
d="M359.5 606q-98.5 0 -165 -74t-66.5 -183.5t66.5 -183.5t165 -74t165 74t66.5 183.5t-66.5 183.5t-165 74zM359.5 709q92.5 0 171 -49t123.5 -131.5t45 -179.5t-45 -180t-123.5 -131.5t-171 -48.5t-171 48.5t-123.5 131.5t-45 180t45 179.5t123.5 131.5t171 49z" />
    <glyph glyph-name="P" unicode="P" horiz-adv-x="557" 
d="M293 610h-143v-262h73h70q63 0 99 38t36 98q0 49 -37 87.5t-98 38.5zM50 700h81.5h82.5h79q53 0 95 -13.5t68 -35.5t43 -51t23.5 -57.5t6.5 -58.5q0 -41 -11.5 -78t-37.5 -70.5t-74 -53t-113 -19.5h-70h-73v-263h-100v700z" />
    <glyph glyph-name="Q" unicode="Q" horiz-adv-x="724" 
d="M359.5 606q-98.5 0 -165 -74t-66.5 -183.5t66.5 -183.5t164.5 -74q46 0 87 18l-74 85l76 66l79 -91q64 73 64 180q0 109 -66.5 183t-165 74zM359.5 709q92.5 0 171 -49t123.5 -131.5t45 -179.5q0 -74 -27.5 -141t-76.5 -118l109 -125l-75 -66l-113 130q-73 -40 -157 -40
q-92 0 -170.5 48.5t-123.5 131.5t-45 180t45 179.5t123.5 131.5t171 49z" />
    <glyph glyph-name="R" unicode="R" horiz-adv-x="581" 
d="M293 610h-143v-246h73h70q64 0 99.5 34.5t35.5 93.5q0 48 -37 83t-98 35zM50 700h81.5h82.5h79q53 0 95 -13t68 -33.5t43 -48.5t23.5 -55.5t6.5 -57.5q0 -45 -13 -84t-47 -73t-87 -49l172 -286h-113l-165 275h-63.5h-62.5v-275h-100v700z" />
    <glyph glyph-name="S" unicode="S" horiz-adv-x="474" 
d="M404 700v-90h-133q-59 0 -86.5 -23t-27.5 -60q0 -13 4 -27q5 -21 26 -43.5t49 -41.5t60 -42.5t59.5 -47.5t47 -57.5t23.5 -69.5q1 -9 1 -18q0 -24 -6 -47t-21.5 -48t-39 -43t-63.5 -30t-91 -12h-151v91h155q49 0 79 27.5t30 61.5t-24.5 65.5t-61.5 58t-74.5 53.5t-68 64
t-38.5 77q-1 7 -1 17q0 19 5 40.5t19.5 48.5t37.5 47.5t64 34.5t94 14h133z" />
    <glyph glyph-name="T" unicode="T" horiz-adv-x="620" 
d="M50 700h210h100h210v-85h-210v-615h-100v615h-210v85z" />
    <glyph glyph-name="U" unicode="U" horiz-adv-x="657" 
d="M608 700v-451q0 -49 -16 -93.5t-47.5 -83t-87.5 -61t-128 -22.5q-69 0 -123.5 21t-88 57t-50.5 82.5t-17 99.5v451h110v-451q0 -78 45.5 -124t123.5 -47q47 0 86 17t66 57t27 97v451h100z" />
    <glyph glyph-name="V" unicode="V" horiz-adv-x="678" 
d="M63 700h105l170 -556h3l182 556h96l-226 -700h-116z" />
    <glyph glyph-name="W" unicode="W" horiz-adv-x="880" 
d="M40 700h108l113 -556h3l117 556h124l130 -556h3l107 556h95l-145 -700h-119l-134 556h-4l-115 -556h-129z" />
    <glyph glyph-name="X" unicode="X" horiz-adv-x="634" 
d="M58 700h126l145 -238l142 238h114l-201 -330l222 -370h-128l-157 279l-164 -279h-115l224 370z" />
    <glyph glyph-name="Y" unicode="Y" horiz-adv-x="676" 
d="M50 700h119l179 -309h3l179 309h97l-237 -405v-295h-105v295z" />
    <glyph glyph-name="Z" unicode="Z" horiz-adv-x="608" 
d="M68 700h496v-73l-392 -536h398v-91h-530v74l390 535h-362v91z" />
    <glyph glyph-name="bracketleft" unicode="[" horiz-adv-x="300" 
d="M50 780h90h160v-80h-160v-868h160v-80h-160h-90v1028z" />
    <glyph glyph-name="backslash" unicode="\" horiz-adv-x="495" 
d="M119 780l311 -967h-95l-311 967h95z" />
    <glyph glyph-name="bracketright" unicode="]" horiz-adv-x="300" 
d="M250 780v-1028h-90h-160v80h160v868h-160v80h160h90z" />
    <glyph glyph-name="asciicircum" unicode="^" horiz-adv-x="627" 
d="M50 293l224 406h80l223 -406h-87l-174 321h-4l-175 -321h-87z" />
    <glyph glyph-name="underscore" unicode="_" horiz-adv-x="600" 
d="M550 0v-81h-500v81h500z" />
    <glyph glyph-name="grave" unicode="`" horiz-adv-x="246" 
d="M50 865h89l58 -156h-61z" />
    <glyph glyph-name="a" unicode="a" horiz-adv-x="600" 
d="M300 420q-70 0 -115 -49t-45 -121t45 -121t115 -49t117 49t47 120.5t-47 121t-117 49.5zM300 510q50 0 95.5 -15.5t83 -45.5t59.5 -81.5t22 -117.5v-250h-100v64q-2 -3 -7.5 -8.5t-20.5 -18t-33 -22.5t-45.5 -18t-56.5 -8h-1q-116 0 -187.5 76.5t-71.5 185.5
q0 48 16 93.5t47 83t82.5 60t115.5 22.5h2z" />
    <glyph glyph-name="b" unicode="b" horiz-adv-x="600" 
d="M310 79q70 0 115 49t45 121t-45 121t-115 49t-117 -49t-47 -120.5t47 -121t117 -49.5zM310 -11q-49 0 -94 15t-83 45.5t-60.5 82t-22.5 117.5v501h100v-315q3 3 7.5 8t20.5 18t33.5 23t45 18t56.5 8h2q126 -1 190.5 -74t64.5 -187q0 -115 -71.5 -187.5t-188.5 -72.5z" />
    <glyph glyph-name="c" unicode="c" horiz-adv-x="511" 
d="M290 510q56 0 105.5 -22t85.5 -62l-68 -68q-44 60 -123 60q-70 0 -114 -48t-44 -120t44 -120t114 -48q79 0 123 60l68 -68q-36 -40 -85.5 -62t-105.5 -22q-107 0 -183.5 76.5t-76.5 183.5t76.5 183.5t183.5 76.5z" />
    <glyph glyph-name="d" unicode="d" horiz-adv-x="595" 
d="M290 79q70 0 117 49.5t47 121t-47 120.5t-117 49t-115 -49t-45 -121t45 -121t115 -49zM290 -11q-116 0 -188 72.5t-72 187.5q0 114 63 187t184 74h2q33 0 62.5 -7.5t48.5 -18.5t33.5 -22.5t20.5 -18.5l6 -8v315h100v-501q0 -66 -22.5 -117.5t-60.5 -82t-83 -45.5t-94 -15
z" />
    <glyph glyph-name="e" unicode="e" 
d="M287 413q-56 0 -96 -28.5t-55 -78.5h299q-15 50 -53.5 78.5t-94.5 28.5zM130 224q9 -61 52 -101.5t105 -40.5q79 0 123 60l68 -68q-36 -40 -85.5 -62t-105.5 -22q-107 0 -182 76t-75 184t75 184t182 76t180.5 -76t73.5 -184q0 -10 -1 -26q-82 1 -173 1q-87 0 -237 -1z
" />
    <glyph glyph-name="f" unicode="f" horiz-adv-x="360" 
d="M310 760v-90q-70 0 -115 -49t-45 -121h136v-85h-136v-415h-100v500q0 107 76.5 183.5t183.5 76.5z" />
    <glyph glyph-name="g" unicode="g" horiz-adv-x="600" 
d="M300 420q-70 0 -115 -49t-45 -121t45 -121t115 -49t117 49t47 120.5t-47 121t-117 49.5zM300 510q48 -1 92 -16.5t83 -45t62 -81t23 -117.5v-126v-120q0 -21 -2 -41.5t-9.5 -47.5t-20 -51t-34.5 -48t-51 -40.5t-73 -27.5t-97 -11q-36 0 -69 9t-54.5 21t-37.5 24.5
t-23 21.5l-7 8l68 68q2 -2 5.5 -6t16.5 -14.5t27.5 -18.5t38.5 -14.5t50 -6.5q4 0 8 1q164 6 164 159v75q-2 -3 -6.5 -8t-20 -18t-32.5 -23t-43.5 -18t-53.5 -8h-4q-121 2 -190.5 76t-69.5 185q0 115 72 187.5t188 72.5z" />
    <glyph glyph-name="h" unicode="h" 
d="M341 510q59 -2 101.5 -31t60.5 -69t18 -85v-325h-100v296q0 56 -27.5 95t-91.5 44q-66 0 -109 -41t-43 -121v-273h-100v750h100v-307q64 67 174 67h17z" />
    <glyph glyph-name="i" unicode="i" horiz-adv-x="200" 
d="M50 500h100v-500h-100v500zM50 740h100v-99h-100v99z" />
    <glyph glyph-name="j" unicode="j" horiz-adv-x="288" 
d="M138 499h100v-500q0 -107 -76.5 -183.5t-183.5 -76.5v90q70 0 115 49t45 121v500zM138 739h100v-99h-100v99z" />
    <glyph glyph-name="k" unicode="k" horiz-adv-x="554" 
d="M50 750h100v-496l229 246h120l-214 -227l219 -273h-124l-161 203l-69 -76v-127h-100v750z" />
    <glyph glyph-name="l" unicode="l" horiz-adv-x="200" 
d="M50 0v750h100v-750h-100z" />
    <glyph glyph-name="m" unicode="m" horiz-adv-x="817" 
d="M417 428q0 4 26 27q59 51 121 55h12q60 0 104 -32t65 -80.5t21 -104.5v-76v-218h-100v184v64v11v11q0 30 -2 50.5t-9 45.5t-24 41.5t-44 22.5q-12 3 -25 3q-45 0 -76 -37t-31 -102q-1 0 -1 -73.5v-146.5v-74h-100v219v77q0 61 -29 99t-76 38h-2q-59 -1 -82 -44.5
t-23 -140.5v-64v-184h-94v259q0 68 17 119t46.5 78t60 40.5t64.5 15.5q8 1 17 1q29 0 57 -8.5t45 -18.5t32.5 -24.5t20.5 -20.5t9 -11v-1z" />
    <glyph glyph-name="n" unicode="n" 
d="M521 1h-100v248q0 84 -36.5 129.5t-104.5 45.5q-66 0 -100.5 -45t-34.5 -131v-248l-95 1v276q0 99 64.5 166.5t175.5 67.5q16 0 31 -1t39.5 -6.5t45 -14.5t43 -26.5t37.5 -41.5t25 -61t10 -83v-276z" />
    <glyph glyph-name="o" unicode="o" horiz-adv-x="580" 
d="M290 418q-70 0 -114 -48t-44 -120t44 -120t114 -48t113 48t43 120t-43 120t-113 48zM290 510q107 0 183.5 -76.5t76.5 -183.5t-76.5 -183.5t-183.5 -76.5t-183.5 76.5t-76.5 183.5t76.5 183.5t183.5 76.5z" />
    <glyph glyph-name="p" unicode="p" horiz-adv-x="600" 
d="M310 420q-70 0 -117 -49.5t-47 -121t47 -120.5t117 -49t115 49t45 121t-45 121t-115 49zM310 510q117 0 188.5 -72.5t71.5 -187.5q0 -111 -65 -186t-174 -75q-117 0 -173 62l-8 10v-312h-100v501q0 66 22.5 117.5t60.5 82t83 45.5t94 15z" />
    <glyph glyph-name="q" unicode="q" horiz-adv-x="600" 
d="M290 420q-70 0 -115 -49t-45 -121t45 -121t115 -49t117 49t47 120.5t-47 121t-117 49.5zM290 510q49 0 94 -15t83 -45.5t60.5 -82t22.5 -117.5v-501h-100v315q-2 -3 -7 -8t-20.5 -18t-32.5 -23t-44 -18t-54 -8h-2q-66 0 -116.5 20.5t-81.5 56.5t-46.5 82.5t-15.5 101.5
q0 115 72 187.5t188 72.5z" />
    <glyph glyph-name="r" unicode="r" horiz-adv-x="360" 
d="M310 511v-115q-71 0 -115.5 -40t-44.5 -105v-250h-100v250q0 120 71.5 190t188.5 70z" />
    <glyph glyph-name="s" unicode="s" horiz-adv-x="388" 
d="M317 500v-88h-102q-75 0 -75 -48v-6q2 -15 23 -31.5t49.5 -32.5t57.5 -36t48.5 -50.5t19.5 -67.5q0 -9 -1 -20q-17 -120 -168 -120h-112v89h115h3q32 0 52.5 13.5t20.5 34.5q0 4 -1 9q-4 17 -26 33t-50 31t-55.5 33.5t-46.5 47.5t-19 66q0 67 48.5 105t116.5 38h102z" />
    <glyph glyph-name="t" unicode="t" horiz-adv-x="362" 
d="M53 699h100v-200h136v-85h-136v-165q0 -71 44.5 -114.5t115.5 -43.5v-92q-108 0 -184 71.5t-76 178.5v450z" />
    <glyph glyph-name="u" unicode="u" 
d="M50 500h100v-248q0 -88 39 -131.5t93 -43.5q73 0 111 44.5t38 130.5v248h90v-277q0 -99 -64.5 -166t-174.5 -67q-17 0 -32 1t-39.5 6.5t-45 14.5t-42.5 26.5t-37.5 41.5t-25.5 61t-10 82v277z" />
    <glyph glyph-name="v" unicode="v" horiz-adv-x="614" 
d="M58 499h105l151 -397h3l151 397h97l-190 -500h-127z" />
    <glyph glyph-name="w" unicode="w" horiz-adv-x="795" 
d="M52 499h100l86 -397h2l105 397h118l118 -397h2l73 397h90l-100 -499h-128l-114 396h-4l-103 -396h-133z" />
    <glyph glyph-name="x" unicode="x" horiz-adv-x="600" 
d="M66 499h118l124 -178l134 178h104l-182 -246l189 -254h-118l-135 189l-155 -189h-105l203 254z" />
    <glyph glyph-name="y" unicode="y" 
d="M426 499l95 -1v-275v-1v-1q-1 -191 -3 -258q-1 -42 -14.5 -80t-42 -71.5t-79 -53.5t-116.5 -20q-36 0 -71 8.5t-59 20.5t-43 24t-28 20l-9 9l68 68q8 -7 21.5 -16.5t50 -25.5t67.5 -16h3q69 1 112 32.5t43 99.5v78q-24 -24 -61.5 -38t-77.5 -14q-17 0 -32 1.5t-39.5 6.5
t-45 14t-42.5 27t-37.5 41.5t-25.5 60.5t-10 83v276h100v-247q0 -88 39 -132t93 -44q144 0 144 176v248z" />
    <glyph glyph-name="z" unicode="z" horiz-adv-x="547" 
d="M60 500h443v-73l-328 -342h333v-85h-468v73l328 342h-308v85z" />
    <glyph glyph-name="braceleft" unicode="{" horiz-adv-x="331" 
d="M145 665q7 25 16.5 42t28.5 35t51 27.5t77 9.5h3v-81h-5q-30 0 -55 -16.5t-29 -40.5q-9 -45 -13 -111t-12.5 -119t-30.5 -102q-6 -14 -17 -24.5t-18 -13.5l-8 -4v-3q26 -16 39 -38q21 -36 31 -80t10.5 -81t4.5 -87t14 -89q6 -24 30.5 -40t53.5 -16h5v-82h-12
q-71 0 -108.5 26t-55.5 89q-10 33 -16.5 115.5t-12.5 116.5q-22 120 -66 120v95h1q16 0 27.5 10t18.5 30.5t10.5 34.5t7.5 37q1 5 1 8q6 30 12 114t17 118z" />
    <glyph glyph-name="bar" unicode="|" horiz-adv-x="190" 
d="M50 -248v1028h90v-1028h-90z" />
    <glyph glyph-name="braceright" unicode="}" horiz-adv-x="341" 
d="M197 665q10 -34 16 -118t12 -114q0 -3 1 -8q4 -23 7.5 -37t10.5 -34.5t19 -30.5t27 -10h1v-95q-44 0 -66 -120q-6 -34 -12 -116.5t-16 -115.5q-19 -63 -56.5 -89t-108.5 -26h-12v82h5q29 0 53.5 16t30.5 40q11 39 15 89t4.5 87t10 81t30.5 80q6 10 15.5 19.5t16.5 14.5
l7 4v3q-29 11 -43 42q-22 49 -30.5 102t-12.5 119t-13 111q-4 24 -29 40.5t-55 16.5h-5v81h3q45 0 77.5 -9.5t51 -27.5t28 -35t17.5 -42z" />
    <glyph glyph-name="asciitilde" unicode="~" horiz-adv-x="539" 
d="M420 379l70 -29q-3 -3 -8 -8.5t-21 -19t-31 -23.5t-36 -18.5t-39 -8.5h-1q-45 0 -95 17t-81 17q-13 0 -28 -11.5t-23 -22.5l-8 -11l-69 29q2 3 6.5 9.5t19 22t29 27.5t35.5 21.5t41 9.5q44 0 96 -17.5t79 -17.5q13 0 29 8.5t26 16.5z" />
    <glyph glyph-name="exclamdown" unicode="&#xa1;" horiz-adv-x="214" 
d="M47 400v100h110v-100h-110zM40 -200l12 527h101l12 -527h-125z" />
    <glyph glyph-name="cent" unicode="&#xa2;" 
d="M268 507v173h70v-171q114 -11 183 -85l-68 -68q-17 23 -48.5 39t-66.5 21v-333q76 6 115 59l68 -68q-35 -38 -78 -59t-105 -24v-126h-70v128q-93 16 -155.5 88.5t-62.5 168.5t62.5 169t155.5 88zM268 88v325q-53 -14 -84.5 -58.5t-31.5 -104.5t31.5 -104t84.5 -58z" />
    <glyph glyph-name="sterling" unicode="&#xa3;" horiz-adv-x="600" 
d="M317 709q54 -1 97.5 -19t110.5 -58l-67 -74q-69 55 -137 55h-8q-41 -3 -76.5 -20.5t-44.5 -48.5q-3 -10 -3 -22q0 -25 17.5 -76t21.5 -69h114v-80h-115q-11 -92 -65 -202h378v-95h-490v75q4 10 19.5 43t21.5 48t17 41t17.5 47.5t10.5 42.5h-76v80h75q-4 15 -25 73.5
t-21 88.5q0 25 11 46q27 57 83.5 90.5t129.5 33.5h4z" />
    <glyph glyph-name="currency" unicode="&#xa4;" horiz-adv-x="585" 
d="M288 384q-40 0 -68.5 -28t-28.5 -68t28.5 -68.5t68.5 -28.5t68 28.5t28 68.5t-28 68t-68 28zM154 378l-108 109l53 53l111 -111q36 20 77.5 20t77.5 -20l111 111l53 -53l-108 -108q28 -41 28 -91q0 -47 -25 -87l111 -111l-53 -53l-112 112q-38 -23 -82.5 -23t-82.5 23
l-112 -112l-53 53l112 112q-26 39 -26 86q0 49 28 90z" />
    <glyph glyph-name="yen" unicode="&#xa5;" horiz-adv-x="676" 
d="M50 699h119l168 -289h4l177 289h109l-237 -385v-25h205v-80h-205v-60h205v-80h-205v-70h-105v70h-205v80h205v60h-205v80h205v25z" />
    <glyph glyph-name="brokenbar" unicode="&#xa6;" horiz-adv-x="190" 
d="M140 366h-90v414h90v-414zM140 -249h-90v414h90v-414z" />
    <glyph glyph-name="section" unicode="&#xa7;" horiz-adv-x="766" 
d="M312 342q-35 -5 -58 -32.5t-23 -63.5v-10q6 -52 66 -91t121 -39q9 0 17 1q39 5 66 39.5t27 74.5q0 10 -2 18q-9 47 -65.5 76.5t-118.5 29.5q-16 0 -30 -3zM370 709q72 -1 133 -26t126 -81l-67 -66q-45 43 -83 64t-99 24h-17q-16 0 -32.5 -2.5t-38.5 -10t-35.5 -26
t-13.5 -45.5q0 -38 19.5 -63.5t51 -38t70 -21t78 -18.5t74 -24.5t59.5 -44.5t31 -74q2 -10 2 -20q0 -82 -107 -152q34 -18 58.5 -56.5t24.5 -81.5q0 -83 -65 -134t-157 -51q-119 0 -262 105l72 70q4 -3 24.5 -18t26 -18.5t22.5 -14.5t26.5 -14t25 -9t30.5 -8t31 -2h2
q45 1 84.5 22t39.5 57q0 25 -20.5 44.5t-53.5 32.5t-73 26t-79.5 29t-72.5 36.5t-53.5 53t-20.5 73.5v10q3 47 32 79.5t83 65.5q-102 58 -102 163q0 64 68 114.5t155 50.5h3z" />
    <glyph glyph-name="dieresis" unicode="&#xa8;" horiz-adv-x="396" 
d="M246 740h100v-100h-100v100zM50 740h100v-100h-100v100z" />
    <glyph glyph-name="copyright" unicode="&#xa9;" horiz-adv-x="818" 
d="M411 548q88 0 137 -54l-32 -53q-28 27 -50 36t-54 9h-1q-50 0 -72.5 -38t-22.5 -97q0 -60 22 -98t71 -38h2q26 0 46.5 8.5t30 16.5t28.5 26l45 -49q-28 -31 -58.5 -47.5t-80.5 -16.5h-11q-79 3 -126 58.5t-47 139.5t47 140.5t126 56.5zM409.5 650q-124.5 0 -212 -87.5
t-87.5 -212t87.5 -212t212 -87.5t212 87.5t87.5 212t-87.5 212t-212 87.5zM409.5 710q97.5 0 180.5 -48t131 -131t48 -180.5t-48 -180.5t-131 -131t-180.5 -48t-180.5 48t-131 131t-48 180.5t48 180.5t131 131t180.5 48z" />
    <glyph glyph-name="ordfeminine" unicode="&#xaa;" horiz-adv-x="442" 
d="M221 632q-38 0 -60 -24.5t-22 -70.5q0 -48 21.5 -74.5t60.5 -26.5q41 0 63 26.5t22 74.5q0 46 -21.5 70.5t-63.5 24.5zM221 710q32 -1 61 -11.5t54.5 -30.5t41 -54t15.5 -77v-173h-89v27q-3 -3 -13 -9.5t-34.5 -15.5t-49.5 -9h-4q-68 2 -110.5 51t-42.5 129
q0 76 47.5 124.5t123.5 48.5z" />
    <glyph glyph-name="guillemotleft" unicode="&#xab;" horiz-adv-x="521" 
d="M473 492v-87l-187 -129v-4l187 -128v-87l-262 183v68zM292 502v-87l-187 -139v-4l187 -138v-87l-262 193v68z" />
    <glyph glyph-name="logicalnot" unicode="&#xac;" horiz-adv-x="599" 
d="M50 390h500v-80v-176h-90v176h-410v80z" />
    <glyph glyph-name="uni00AD" unicode="&#xad;" horiz-adv-x="479" 
d="M430 390v-80h-380v80h380z" />
    <glyph glyph-name="registered" unicode="&#xae;" horiz-adv-x="458" 
d="M229 680q-62 0 -105.5 -43.5t-43.5 -105.5t43.5 -105.5t105.5 -43.5t105.5 43.5t43.5 105.5t-43.5 105.5t-105.5 43.5zM229 710q74 0 126.5 -52.5t52.5 -126.5t-52.5 -126.5t-126.5 -52.5t-126.5 52.5t-52.5 126.5t52.5 126.5t126.5 52.5zM237 599h-10h-17h-9v-61h12
h14.5h9.5q32 0 32 32q0 29 -32 29zM163 628h45h29q35 0 51 -17.5t16 -40.5q0 -45 -41 -57l48 -79h-42l-45 75h-23v-75h-38v194z" />
    <glyph glyph-name="macron" unicode="&#xaf;" horiz-adv-x="365" 
d="M50 765h266v-65h-266v65z" />
    <glyph glyph-name="degree" unicode="&#xb0;" horiz-adv-x="385" 
d="M192.5 639q-29.5 0 -46 -20.5t-16.5 -52t16.5 -52t46 -20.5t46 20.5t16.5 52t-16.5 52t-46 20.5zM193 709q59 0 100.5 -42t41.5 -101t-41.5 -100.5t-100.5 -41.5t-101 41.5t-42 100.5t42 101t101 42z" />
    <glyph glyph-name="plusminus" unicode="&#xb1;" horiz-adv-x="599" 
d="M50 180h500v-80h-500v80zM255 600h90v-151h205v-80h-205v-151h-90v151h-205v80h205v151z" />
    <glyph glyph-name="uni00B2" unicode="&#xb2;" horiz-adv-x="366" 
d="M172 781q64 0 99.5 -22.5t35.5 -62.5q0 -39 -34 -86q-36 -53 -116 -109q11 1 17 2q22 1 58 1q19 0 40 -0.5t33 -0.5h12v-68h-267v55q7 5 18.5 12t41 28.5t53 41.5t44.5 45t24 44q2 7 2 13q0 38 -66 38q-47 0 -84 -42l-28 63q44 48 117 48z" />
    <glyph glyph-name="uni00B3" unicode="&#xb3;" horiz-adv-x="365" 
d="M179 781h6q57 0 88.5 -26t31.5 -71q0 -44 -47 -77q57 -21 57 -72q0 -44 -35 -74t-99 -30h-7h-3q-34 0 -67 13t-54 36l49 47q14 -16 36.5 -26t44.5 -10q61 0 61 46q0 22 -12.5 31t-42.5 9l-42 -1v57q31 -1 42 -1q15 0 24.5 3t13 9.5t5 13t1.5 17.5q0 20 -10.5 34.5
t-31.5 14.5q-4 0 -9 -1q-24 -3 -49 -17.5t-40 -30.5l-35 58q21 22 53 35t66 13h5z" />
    <glyph glyph-name="acute" unicode="&#xb4;" horiz-adv-x="246" 
d="M197 865l-86 -156h-61l58 156h89z" />
    <glyph glyph-name="mu" unicode="&#xb5;" horiz-adv-x="561" 
d="M40 499h100h1v-252q0 -75 39 -120t95.5 -45t96 45.5t39.5 119.5v252h100h1v-499h-101v60q-11 -14 -26.5 -28t-45.5 -28.5t-60 -14.5h-3q-69 1 -135 67v-366h-101v809z" />
    <glyph glyph-name="paragraph" unicode="&#xb6;" horiz-adv-x="569" 
d="M379 626v-771h61v771h-61zM286 700h234v-920h-221v477h-13q-53 0 -94.5 14t-67.5 36.5t-43 53t-24 60.5t-7 63q0 30 6.5 58.5t23.5 57.5t43 51t68 35.5t95 13.5z" />
    <glyph glyph-name="periodcentered" unicode="&#xb7;" horiz-adv-x="230" 
d="M50 330h130v-130h-130v130z" />
    <glyph glyph-name="cedilla" unicode="&#xb8;" horiz-adv-x="281" 
d="M226 2q9 -37 9 -68q0 -65 -38 -99t-109 -34q-19 0 -39 2l1 73q12 -1 22 -1q45 0 67 20t22 56q0 23 -9 51h74z" />
    <glyph glyph-name="uni00B9" unicode="&#xb9;" horiz-adv-x="228" 
d="M50 770h128v-336h-82v266h-46v70z" />
    <glyph glyph-name="ordmasculine" unicode="&#xba;" horiz-adv-x="441" 
d="M221 630q-81 0 -81 -97q0 -47 21.5 -75t59.5 -28t59.5 28t21.5 75q0 97 -81 97zM221 709q82 -1 126 -50t44 -126q0 -79 -43 -131t-127.5 -52t-127.5 52t-43 131q0 77 44.5 126t126.5 50z" />
    <glyph glyph-name="guillemotright" unicode="&#xbb;" horiz-adv-x="522" 
d="M50 492l262 -184v-68l-262 -183v87l187 128v4l-187 129v87zM231 502l262 -194v-68l-262 -193v87l187 138v4l-187 139v87z" />
    <glyph glyph-name="onequarter" unicode="&#xbc;" horiz-adv-x="666" 
d="M485 700h102l-435 -700h-102zM527 340h59v-220h30v-54h-30v-66h-65v66h-169v58zM75 700h128v-336h-83v266h-45v70zM522 249l-107 -129h106z" />
    <glyph glyph-name="onehalf" unicode="&#xbd;" horiz-adv-x="712" 
d="M485 700h102l-435 -700h-102zM518 346q64 0 99.5 -22.5t35.5 -62.5q0 -38 -33 -86q-37 -52 -117 -108q11 1 18 1q21 1 58 1l84 -1v-68h-267v56q7 4 19 12t42 31t54 44t45 47t24 45q2 7 2 11q0 16 -15 24t-54 8q-47 0 -84 -43l-28 63q44 48 117 48zM75 700h128v-336h-83
v266h-45v70z" />
    <glyph glyph-name="threequarters" unicode="&#xbe;" horiz-adv-x="738" 
d="M555 700h102l-435 -700h-102zM599 340h59v-220h30v-54h-30v-66h-65v66h-169v58zM179 710h6q57 0 88.5 -26t31.5 -71q0 -44 -47 -77q57 -21 57 -72q0 -44 -35 -74t-99 -30h-7h-3q-34 0 -67 13t-54 36l49 47q14 -16 36.5 -26t44.5 -10q59 0 59 45q0 23 -11.5 32t-41.5 9
l-42 -1v57q31 -1 42 -1q15 0 24 3t13 9.5t5.5 13t1.5 17.5q0 19 -14 33.5t-34 14.5h-3q-23 -1 -48 -16t-41 -32l-35 58q21 22 53 35t66 13h5zM594 249l-107 -129h106z" />
    <glyph glyph-name="questiondown" unicode="&#xbf;" horiz-adv-x="613" 
d="M361 399h-110v100h110v-100zM250 270q4 9 5.5 25.5t2.5 28.5v12h99q0 -67 -12 -97q-10 -26 -33 -52t-48.5 -46.5t-50 -41t-40 -44t-15.5 -46.5v-1q0 -21 9 -42t27 -40t50.5 -31t74.5 -12h8q106 3 174 79l67 -74q-88 -97 -241 -98h-4q-125 0 -202 50t-77 132q0 47 17.5 83
t44 61t54.5 46.5t53.5 49t36.5 58.5z" />
    <glyph glyph-name="Agrave" unicode="&#xc0;" horiz-adv-x="657" 
d="M213 924h89l58 -154h-61zM329 621q-47 0 -86 -17t-66 -57t-27 -97v-169h348v169q0 78 -45.5 124t-123.5 47zM50 450q0 46 17 91t49.5 83.5t88 62t124.5 23.5t122.5 -20.5t86 -57t49 -82.5t16.5 -100v-450h-105v196h-348v-196h-100v450z" />
    <glyph glyph-name="Aacute" unicode="&#xc1;" horiz-adv-x="657" 
d="M446 925l-86 -155h-61l58 155h89zM329 621q-47 0 -86 -17t-66 -57t-27 -97v-169h348v169q0 78 -45.5 124t-123.5 47zM50 450q0 46 17 91t49.5 83.5t88 62t124.5 23.5t122.5 -20.5t86 -57t49 -82.5t16.5 -100v-450h-105v196h-348v-196h-100v450z" />
    <glyph glyph-name="Acircumflex" unicode="&#xc2;" horiz-adv-x="657" 
d="M155 770l133 154h80l134 -154h-87l-85 71h-4l-84 -71h-87zM329 621q-47 0 -86 -17t-66 -57t-27 -97v-169h348v169q0 78 -45.5 124t-123.5 47zM50 450q0 46 17 91t49.5 83.5t88 62t124.5 23.5t122.5 -20.5t86 -57t49 -82.5t16.5 -100v-450h-105v196h-348v-196h-100v450z
" />
    <glyph glyph-name="Atilde" unicode="&#xc3;" horiz-adv-x="657" 
d="M459 888l70 -29q-2 -3 -6.5 -8.5t-18 -19t-27.5 -23.5t-35.5 -18.5t-41.5 -8.5h-3q-36 1 -71.5 17.5t-68.5 16.5q-13 0 -28 -11.5t-23 -22.5l-8 -11l-69 29q2 3 6.5 9t19 22t29 27.5t35.5 21.5t41 10h2q37 0 73 -17.5t64 -17.5q13 0 28 8.5t24 16.5zM329 621
q-47 0 -86 -17t-66 -57t-27 -97v-169h348v169q0 78 -45.5 124t-123.5 47zM50 450q0 46 17 91t49.5 83.5t88 62t124.5 23.5t122.5 -20.5t86 -57t49 -82.5t16.5 -100v-450h-105v196h-348v-196h-100v450z" />
    <glyph glyph-name="Adieresis" unicode="&#xc4;" horiz-adv-x="657" 
d="M377 870h100v-100h-100v100zM181 870h100v-100h-100v100zM329 621q-47 0 -86 -17t-66 -57t-27 -97v-169h348v169q0 78 -45.5 124t-123.5 47zM50 450q0 46 17 91t49.5 83.5t88 62t124.5 23.5t122.5 -20.5t86 -57t49 -82.5t16.5 -100v-450h-105v196h-348v-196h-100v450z
" />
    <glyph glyph-name="Aring" unicode="&#xc5;" horiz-adv-x="657" 
d="M328 870q-5 0 -11 -1.5t-14 -10t-8 -22.5q0 -13 9.5 -22t23.5 -9h1q15 0 24.5 9t9.5 25q0 13 -8 22t-26 9h-1zM328 920q43 0 69.5 -21.5t26.5 -58.5t-25 -61t-70 -24h-1q-42 0 -67.5 23t-25.5 59q0 41 26.5 62t66.5 21zM329 621q-47 0 -86 -17t-66 -57t-27 -97v-169h348
v169q0 78 -45.5 124t-123.5 47zM50 450q0 46 17 91t49.5 83.5t88 62t124.5 23.5t122.5 -20.5t86 -57t49 -82.5t16.5 -100v-450h-105v196h-348v-196h-100v450z" />
    <glyph glyph-name="AE" unicode="&#xc6;" horiz-adv-x="923" 
d="M150 450v-169h278v169q0 81 -35.5 126t-109.5 45q-58 0 -95.5 -43t-37.5 -128zM698 710h162v-85h-162q-69 0 -114.5 -51.5t-45.5 -123.5v-57h291v-85h-291v-223h337v-85h-337h-110v196h-278v-196h-100v450q0 46 14 90.5t41 82.5t73.5 62t104.5 25h6q67 0 121 -27t84 -73
q36 47 89.5 73.5t114.5 26.5z" />
    <glyph glyph-name="Ccedilla" unicode="&#xc7;" horiz-adv-x="645" 
d="M448 -2q9 -37 9 -68q0 -65 -38 -99t-109 -34q-19 0 -39 2l1 73q12 -1 22 -1q45 0 67 20t22 56q0 23 -9 51h74zM368 709q72 0 123 -23.5t97 -75.5l-64 -66q-37 36 -71 53.5t-85 17.5q-63 0 -117.5 -39.5t-85 -100.5t-30.5 -126t30.5 -126.5t85 -100.5t117.5 -39
q50 0 96 22t77 61l74 -67q-46 -52 -109.5 -81t-137.5 -29q-97 0 -175 48.5t-120.5 130.5t-42.5 180.5t42.5 181t120.5 131t175 48.5z" />
    <glyph glyph-name="Egrave" unicode="&#xc8;" horiz-adv-x="577" 
d="M202 923h89l58 -154h-61zM310 700h192v-90h-192q-71 0 -115.5 -45t-44.5 -116v-43h321v-85h-321v-72q0 -71 44.5 -114.5t115.5 -43.5h207v-91h-207q-108 0 -184 71.5t-76 177.5v200q0 106 76 178.5t184 72.5z" />
    <glyph glyph-name="Eacute" unicode="&#xc9;" horiz-adv-x="577" 
d="M393 924l-86 -155h-61l58 155h89zM310 700h192v-90h-192q-71 0 -115.5 -45t-44.5 -116v-43h321v-85h-321v-72q0 -71 44.5 -114.5t115.5 -43.5h207v-91h-207q-108 0 -184 71.5t-76 177.5v200q0 106 76 178.5t184 72.5z" />
    <glyph glyph-name="Ecircumflex" unicode="&#xca;" horiz-adv-x="577" 
d="M112 769l133 154h80l134 -154h-87l-85 71h-4l-84 -71h-87zM310 700h192v-90h-192q-71 0 -115.5 -45t-44.5 -116v-43h321v-85h-321v-72q0 -71 44.5 -114.5t115.5 -43.5h207v-91h-207q-108 0 -184 71.5t-76 177.5v200q0 106 76 178.5t184 72.5z" />
    <glyph glyph-name="Edieresis" unicode="&#xcb;" horiz-adv-x="577" 
d="M334 870h100v-100h-100v100zM138 870h100v-100h-100v100zM310 700h192v-90h-192q-71 0 -115.5 -45t-44.5 -116v-43h321v-85h-321v-72q0 -71 44.5 -114.5t115.5 -43.5h207v-91h-207q-108 0 -184 71.5t-76 177.5v200q0 106 76 178.5t184 72.5z" />
    <glyph glyph-name="Igrave" unicode="&#xcc;" horiz-adv-x="205" 
d="M4 923h89l58 -154h-61zM50 0v700h105v-700h-105z" />
    <glyph glyph-name="Iacute" unicode="&#xcd;" horiz-adv-x="205" 
d="M197 924l-86 -155h-61l58 155h89zM50 0v700h105v-700h-105z" />
    <glyph glyph-name="Icircumflex" unicode="&#xce;" horiz-adv-x="205" 
d="M-74 769l133 154h80l134 -154h-87l-85 71h-4l-84 -71h-87zM50 0v700h105v-700h-105z" />
    <glyph glyph-name="Idieresis" unicode="&#xcf;" horiz-adv-x="205" 
d="M148 870h100v-100h-100v100zM-48 870h100v-100h-100v100zM50 0v700h105v-700h-105z" />
    <glyph glyph-name="Eth" unicode="&#xd0;" horiz-adv-x="687" 
d="M359 606h-143v-208h138v-70h-138v-234h143q47 0 82 21t54 58t28 81t9 96t-9 95.5t-28 81t-54 58.5t-82 21zM116 700h81h81h81q72 0 126.5 -26.5t87 -74.5t48.5 -110.5t16 -138.5t-16 -138.5t-48.5 -110.5t-87 -74.5t-126.5 -26.5h-96.5h-105.5h-41v328h-76v70h76v302z
" />
    <glyph glyph-name="Ntilde" unicode="&#xd1;" horiz-adv-x="658" 
d="M459 887l70 -29q-2 -3 -6.5 -8.5t-18 -19t-27.5 -23.5t-35.5 -18.5t-41.5 -8.5h-3q-36 1 -71.5 17.5t-68.5 16.5q-13 0 -28 -11.5t-23 -22.5l-8 -11l-69 29q2 3 6.5 9t19 22t29 27.5t35.5 21.5t41 10h2q37 0 73 -17.5t64 -17.5q13 0 28 8.5t24 16.5zM50 700h106l357 -536
v536h95v-700h-105l-357 536v-536h-96v700z" />
    <glyph glyph-name="Ograve" unicode="&#xd2;" horiz-adv-x="718" 
d="M243 923h89l58 -154h-61zM359.5 606q-98.5 0 -165 -74t-66.5 -183.5t66.5 -183.5t165 -74t165 74t66.5 183.5t-66.5 183.5t-165 74zM359.5 709q92.5 0 171 -49t123.5 -131.5t45 -179.5t-45 -180t-123.5 -131.5t-171 -48.5t-171 48.5t-123.5 131.5t-45 180t45 179.5
t123.5 131.5t171 49z" />
    <glyph glyph-name="Oacute" unicode="&#xd3;" horiz-adv-x="718" 
d="M476 924l-86 -155h-61l58 155h89zM359.5 606q-98.5 0 -165 -74t-66.5 -183.5t66.5 -183.5t165 -74t165 74t66.5 183.5t-66.5 183.5t-165 74zM359.5 709q92.5 0 171 -49t123.5 -131.5t45 -179.5t-45 -180t-123.5 -131.5t-171 -48.5t-171 48.5t-123.5 131.5t-45 180
t45 179.5t123.5 131.5t171 49z" />
    <glyph glyph-name="Ocircumflex" unicode="&#xd4;" horiz-adv-x="718" 
d="M186 769l133 154h80l134 -154h-87l-85 71h-4l-84 -71h-87zM359.5 606q-98.5 0 -165 -74t-66.5 -183.5t66.5 -183.5t165 -74t165 74t66.5 183.5t-66.5 183.5t-165 74zM359.5 709q92.5 0 171 -49t123.5 -131.5t45 -179.5t-45 -180t-123.5 -131.5t-171 -48.5t-171 48.5
t-123.5 131.5t-45 180t45 179.5t123.5 131.5t171 49z" />
    <glyph glyph-name="Otilde" unicode="&#xd5;" horiz-adv-x="718" 
d="M489 887l70 -29q-2 -3 -6.5 -8.5t-18 -19t-27.5 -23.5t-35.5 -18.5t-41.5 -8.5h-3q-36 1 -71.5 17.5t-68.5 16.5q-13 0 -28 -11.5t-23 -22.5l-8 -11l-69 29q2 3 6.5 9t19 22t29 27.5t35.5 21.5t41 10h2q37 0 73 -17.5t64 -17.5q13 0 28 8.5t24 16.5zM359.5 606
q-98.5 0 -165 -74t-66.5 -183.5t66.5 -183.5t165 -74t165 74t66.5 183.5t-66.5 183.5t-165 74zM359.5 709q92.5 0 171 -49t123.5 -131.5t45 -179.5t-45 -180t-123.5 -131.5t-171 -48.5t-171 48.5t-123.5 131.5t-45 180t45 179.5t123.5 131.5t171 49z" />
    <glyph glyph-name="Odieresis" unicode="&#xd6;" horiz-adv-x="718" 
d="M407 870h100v-100h-100v100zM211 870h100v-100h-100v100zM359.5 606q-98.5 0 -165 -74t-66.5 -183.5t66.5 -183.5t165 -74t165 74t66.5 183.5t-66.5 183.5t-165 74zM359.5 709q92.5 0 171 -49t123.5 -131.5t45 -179.5t-45 -180t-123.5 -131.5t-171 -48.5t-171 48.5
t-123.5 131.5t-45 180t45 179.5t123.5 131.5t171 49z" />
    <glyph glyph-name="multiply" unicode="&#xd7;" horiz-adv-x="600" 
d="M550 163l-63 -63l-187 186l-186 -186l-64 63l187 187l-187 187l64 63l186 -186l187 186l63 -63l-186 -187z" />
    <glyph glyph-name="Oslash" unicode="&#xd8;" horiz-adv-x="778" 
d="M545 549l-253 -437q47 -22 97 -22q99 0 169.5 76t70.5 185q0 59 -22.5 110.5t-61.5 87.5zM389 611q-98 0 -168.5 -75.5t-70.5 -184.5q0 -59 22.5 -111t61.5 -88l253 437q-47 22 -98 22zM589 767h81l-75 -130q62 -51 98 -126t36 -160q0 -97 -45 -180t-123.5 -132
t-171.5 -49q-77 0 -147 36l-53 -92h-80l75 130q-62 51 -98 126t-36 161q0 97 45 179.5t123.5 131.5t170.5 49q78 0 147 -36z" />
    <glyph glyph-name="Ugrave" unicode="&#xd9;" horiz-adv-x="657" 
d="M213 923h89l58 -154h-61zM608 700v-451q0 -49 -16 -93.5t-47.5 -83t-87.5 -61t-128 -22.5q-69 0 -123.5 21t-88 57t-50.5 82.5t-17 99.5v451h110v-451q0 -78 45.5 -124t123.5 -47q47 0 86 17t66 57t27 97v451h100z" />
    <glyph glyph-name="Uacute" unicode="&#xda;" horiz-adv-x="657" 
d="M446 924l-86 -155h-61l58 155h89zM608 700v-451q0 -49 -16 -93.5t-47.5 -83t-87.5 -61t-128 -22.5q-69 0 -123.5 21t-88 57t-50.5 82.5t-17 99.5v451h110v-451q0 -78 45.5 -124t123.5 -47q47 0 86 17t66 57t27 97v451h100z" />
    <glyph glyph-name="Ucircumflex" unicode="&#xdb;" horiz-adv-x="657" 
d="M155 769l133 154h80l134 -154h-87l-85 71h-4l-84 -71h-87zM608 700v-451q0 -49 -16 -93.5t-47.5 -83t-87.5 -61t-128 -22.5q-69 0 -123.5 21t-88 57t-50.5 82.5t-17 99.5v451h110v-451q0 -78 45.5 -124t123.5 -47q47 0 86 17t66 57t27 97v451h100z" />
    <glyph glyph-name="Udieresis" unicode="&#xdc;" horiz-adv-x="657" 
d="M377 870h100v-100h-100v100zM181 870h100v-100h-100v100zM608 700v-451q0 -49 -16 -93.5t-47.5 -83t-87.5 -61t-128 -22.5q-69 0 -123.5 21t-88 57t-50.5 82.5t-17 99.5v451h110v-451q0 -78 45.5 -124t123.5 -47q47 0 86 17t66 57t27 97v451h100z" />
    <glyph glyph-name="Yacute" unicode="&#xdd;" horiz-adv-x="676" 
d="M455 924l-86 -155h-61l58 155h89zM50 700h119l179 -309h3l179 309h97l-237 -405v-295h-105v295z" />
    <glyph glyph-name="Thorn" unicode="&#xde;" horiz-adv-x="579" 
d="M293 510l-142 -1v-262h142q64 0 99.5 38.5t35.5 97.5q0 49 -37 88t-98 39zM50 700h101v-100h85h57q53 0 95 -14t68 -35.5t43 -51t23.5 -58t6.5 -58.5q0 -32 -6.5 -62.5t-24 -61t-43.5 -53t-67.5 -36t-94.5 -13.5l-142 -1v-156h-101v700z" />
    <glyph glyph-name="germandbls" unicode="&#xdf;" horiz-adv-x="585" 
d="M50 470q0 61 19.5 107t53 72t73.5 38.5t87 12.5q51 0 93 -17t67 -43t38.5 -55t13.5 -56q0 -31 -11 -53.5t-31 -36t-36 -20t-38 -12.5q67 -17 111.5 -73.5t44.5 -119.5q0 -49 -11.5 -87.5t-38 -70.5t-75 -49t-117.5 -17q-45 0 -96 10v90q49 -16 96 -16q59 0 97 42t38 93
q0 26 -9 52.5t-27 51t-50.5 39.5t-74.5 15h-14v77h10q125 0 125 81q0 14 -5 28t-15.5 28t-32.5 23t-52 9q-32 -1 -53 -6.5t-41 -19.5t-29.5 -43t-9.5 -74v-470h-100v470z" />
    <glyph glyph-name="agrave" unicode="&#xe0;" horiz-adv-x="600" 
d="M208 724h89l58 -154h-61zM300 420q-70 0 -115 -49t-45 -121t45 -121t115 -49t117 49t47 120.5t-47 121t-117 49.5zM300 510q50 0 95.5 -15.5t83 -45.5t59.5 -81.5t22 -117.5v-250h-100v64q-2 -3 -7.5 -8.5t-20.5 -18t-33 -22.5t-45.5 -18t-56.5 -8h-1q-116 0 -187.5 76.5
t-71.5 185.5q0 48 16 93.5t47 83t82.5 60t115.5 22.5h2z" />
    <glyph glyph-name="aacute" unicode="&#xe1;" horiz-adv-x="600" 
d="M407 725l-86 -155h-61l58 155h89zM300 420q-70 0 -115 -49t-45 -121t45 -121t115 -49t117 49t47 120.5t-47 121t-117 49.5zM300 510q50 0 95.5 -15.5t83 -45.5t59.5 -81.5t22 -117.5v-250h-100v64q-2 -3 -7.5 -8.5t-20.5 -18t-33 -22.5t-45.5 -18t-56.5 -8h-1
q-116 0 -187.5 76.5t-71.5 185.5q0 48 16 93.5t47 83t82.5 60t115.5 22.5h2z" />
    <glyph glyph-name="acircumflex" unicode="&#xe2;" horiz-adv-x="600" 
d="M116 570l133 154h80l134 -154h-87l-85 71h-4l-84 -71h-87zM300 420q-70 0 -115 -49t-45 -121t45 -121t115 -49t117 49t47 120.5t-47 121t-117 49.5zM300 510q50 0 95.5 -15.5t83 -45.5t59.5 -81.5t22 -117.5v-250h-100v64q-2 -3 -7.5 -8.5t-20.5 -18t-33 -22.5t-45.5 -18
t-56.5 -8h-1q-116 0 -187.5 76.5t-71.5 185.5q0 48 16 93.5t47 83t82.5 60t115.5 22.5h2z" />
    <glyph glyph-name="atilde" unicode="&#xe3;" horiz-adv-x="600" 
d="M430 688l70 -29q-2 -3 -6.5 -8.5t-18 -19t-27.5 -23.5t-35.5 -18.5t-41.5 -8.5h-3q-36 1 -71.5 17.5t-68.5 16.5q-13 0 -28 -11.5t-23 -22.5l-8 -11l-69 29q2 3 6.5 9t19 22t29 27.5t35.5 21.5t41 10h2q37 0 73 -17.5t64 -17.5q13 0 28 8.5t24 16.5zM300 420
q-70 0 -115 -49t-45 -121t45 -121t115 -49t117 49t47 120.5t-47 121t-117 49.5zM300 510q50 0 95.5 -15.5t83 -45.5t59.5 -81.5t22 -117.5v-250h-100v64q-2 -3 -7.5 -8.5t-20.5 -18t-33 -22.5t-45.5 -18t-56.5 -8h-1q-116 0 -187.5 76.5t-71.5 185.5q0 48 16 93.5t47 83
t82.5 60t115.5 22.5h2z" />
    <glyph glyph-name="adieresis" unicode="&#xe4;" horiz-adv-x="600" 
d="M338 670h100v-100h-100v100zM142 670h100v-100h-100v100zM300 420q-70 0 -115 -49t-45 -121t45 -121t115 -49t117 49t47 120.5t-47 121t-117 49.5zM300 510q50 0 95.5 -15.5t83 -45.5t59.5 -81.5t22 -117.5v-250h-100v64q-2 -3 -7.5 -8.5t-20.5 -18t-33 -22.5t-45.5 -18
t-56.5 -8h-1q-116 0 -187.5 76.5t-71.5 185.5q0 48 16 93.5t47 83t82.5 60t115.5 22.5h2z" />
    <glyph glyph-name="aring" unicode="&#xe5;" horiz-adv-x="600" 
d="M289 665q-5 0 -11 -1.5t-14 -10t-8 -22.5q0 -13 9.5 -22t23.5 -9h1q15 0 24.5 9t9.5 25q0 13 -8 22t-26 9h-1zM289 715q43 0 69.5 -21.5t26.5 -58.5t-25 -61t-70 -24h-1q-42 0 -67.5 23t-25.5 59q0 41 26.5 62t66.5 21zM300 420q-70 0 -115 -49t-45 -121t45 -121t115 -49
t117 49t47 120.5t-47 121t-117 49.5zM300 510q50 0 95.5 -15.5t83 -45.5t59.5 -81.5t22 -117.5v-250h-100v64q-2 -3 -7.5 -8.5t-20.5 -18t-33 -22.5t-45.5 -18t-56.5 -8h-1q-116 0 -187.5 76.5t-71.5 185.5q0 48 16 93.5t47 83t82.5 60t115.5 22.5h2z" />
    <glyph glyph-name="ae" unicode="&#xe6;" horiz-adv-x="990" 
d="M710 414q-50 0 -95 -31t-47 -75h270q0 43 -36.5 74.5t-91.5 31.5zM310 420q-70 0 -115 -49t-45 -121t45 -121t115 -49q69 0 106.5 48t37.5 122t-37.5 122t-106.5 48zM710 512q103 0 172 -71t69 -173v-16l-1 -29q-82 1 -167 1q-68 0 -219 -1v-8q0 -64 41 -97.5t105 -33.5
q37 0 58.5 14t44.5 46l68 -68q-39 -43 -78 -65t-92 -22h-1q-47 0 -96 21.5t-68 43.5v-54h-93v54q-2 -3 -6 -7t-17.5 -15t-29 -19t-40.5 -15.5t-52 -8.5h-1h-1q-118 0 -187 74.5t-69 186.5q0 115 72 187.5t188 72.5q61 -2 113 -26.5t84 -72.5q32 46 86.5 73.5t116.5 27.5z
" />
    <glyph glyph-name="ccedilla" unicode="&#xe7;" horiz-adv-x="511" 
d="M361 0q9 -37 9 -68q0 -65 -38 -99t-109 -34q-19 0 -39 2l1 73q12 -1 22 -1q45 0 67 20t22 56q0 23 -9 51h74zM290 510q56 0 105.5 -22t85.5 -62l-68 -68q-44 60 -123 60q-70 0 -114 -48t-44 -120t44 -120t114 -48q79 0 123 60l68 -68q-36 -40 -85.5 -62t-105.5 -22
q-107 0 -183.5 76.5t-76.5 183.5t76.5 183.5t183.5 76.5z" />
    <glyph glyph-name="egrave" unicode="&#xe8;" 
d="M171 724h89l58 -154h-61zM287 413q-56 0 -96 -28.5t-55 -78.5h299q-15 50 -53.5 78.5t-94.5 28.5zM130 224q9 -61 52 -101.5t105 -40.5q79 0 123 60l68 -68q-36 -40 -85.5 -62t-105.5 -22q-107 0 -182 76t-75 184t75 184t182 76t180.5 -76t73.5 -184q0 -10 -1 -26
q-82 1 -173 1q-87 0 -237 -1z" />
    <glyph glyph-name="eacute" unicode="&#xe9;" 
d="M404 725l-86 -155h-61l58 155h89zM287 413q-56 0 -96 -28.5t-55 -78.5h299q-15 50 -53.5 78.5t-94.5 28.5zM130 224q9 -61 52 -101.5t105 -40.5q79 0 123 60l68 -68q-36 -40 -85.5 -62t-105.5 -22q-107 0 -182 76t-75 184t75 184t182 76t180.5 -76t73.5 -184
q0 -10 -1 -26q-82 1 -173 1q-87 0 -237 -1z" />
    <glyph glyph-name="ecircumflex" unicode="&#xea;" 
d="M113 570l133 154h80l134 -154h-87l-85 71h-4l-84 -71h-87zM287 413q-56 0 -96 -28.5t-55 -78.5h299q-15 50 -53.5 78.5t-94.5 28.5zM130 224q9 -61 52 -101.5t105 -40.5q79 0 123 60l68 -68q-36 -40 -85.5 -62t-105.5 -22q-107 0 -182 76t-75 184t75 184t182 76
t180.5 -76t73.5 -184q0 -10 -1 -26q-82 1 -173 1q-87 0 -237 -1z" />
    <glyph glyph-name="edieresis" unicode="&#xeb;" 
d="M335 670h100v-100h-100v100zM139 670h100v-100h-100v100zM287 413q-56 0 -96 -28.5t-55 -78.5h299q-15 50 -53.5 78.5t-94.5 28.5zM130 224q9 -61 52 -101.5t105 -40.5q79 0 123 60l68 -68q-36 -40 -85.5 -62t-105.5 -22q-107 0 -182 76t-75 184t75 184t182 76t180.5 -76
t73.5 -184q0 -10 -1 -26q-82 1 -173 1q-87 0 -237 -1z" />
    <glyph glyph-name="igrave" unicode="&#xec;" horiz-adv-x="200" 
d="M50 500h100v-500h-100v500zM10 754h89l58 -154h-61z" />
    <glyph glyph-name="iacute" unicode="&#xed;" horiz-adv-x="200" 
d="M50 500h100v-500h-100v500zM194 754l-86 -155h-61l58 155h89z" />
    <glyph glyph-name="icircumflex" unicode="&#xee;" horiz-adv-x="321" 
d="M108 500h100v-500h-100v500zM-11 600l133 154h80l134 -154h-87l-85 71h-4l-84 -71h-87z" />
    <glyph glyph-name="idieresis" unicode="&#xef;" horiz-adv-x="266" 
d="M82 500h100v-500h-100v500zM3 754h100v-99h-100v99zM163 754h100v-99h-100v99z" />
    <glyph glyph-name="eth" unicode="&#xf0;" horiz-adv-x="587" 
d="M432 346q-64 35 -125 35q-47 0 -84 -21t-56 -56q-18 -30 -18 -65q0 -52 35 -93t78 -43h5q63 0 114 68.5t51 156.5v18zM529 286q-15 -133 -90 -213.5t-171 -85.5h-12q-99 0 -165 70t-66 164q0 54 24 103q28 57 87.5 91t142.5 34q73 0 156 -27q-4 76 -96 162l-87 -84
l-49 49l82 80q-43 32 -93 62t-78 44.5t-30 14.5h144q64 -27 116 -63l64 63l50 -49l-60 -58q72 -67 103 -147.5t31 -160.5q0 -25 -3 -49z" />
    <glyph glyph-name="ntilde" unicode="&#xf1;" 
d="M416 689l70 -29q-2 -3 -6.5 -8.5t-18 -19t-27.5 -23.5t-35.5 -18.5t-41.5 -8.5h-3q-36 1 -71.5 17.5t-68.5 16.5q-13 0 -28 -11.5t-23 -22.5l-8 -11l-69 29q2 3 6.5 9t19 22t29 27.5t35.5 21.5t41 10h2q37 0 73 -17.5t64 -17.5q13 0 28 8.5t24 16.5zM521 1h-100v248
q0 84 -36.5 129.5t-104.5 45.5q-66 0 -100.5 -45t-34.5 -131v-248l-95 1v276q0 99 64.5 166.5t175.5 67.5q16 0 31 -1t39.5 -6.5t45 -14.5t43 -26.5t37.5 -41.5t25 -61t10 -83v-276z" />
    <glyph glyph-name="ograve" unicode="&#xf2;" horiz-adv-x="580" 
d="M174 724h89l58 -154h-61zM290 418q-70 0 -114 -48t-44 -120t44 -120t114 -48t113 48t43 120t-43 120t-113 48zM290 510q107 0 183.5 -76.5t76.5 -183.5t-76.5 -183.5t-183.5 -76.5t-183.5 76.5t-76.5 183.5t76.5 183.5t183.5 76.5z" />
    <glyph glyph-name="oacute" unicode="&#xf3;" horiz-adv-x="580" 
d="M357 725l-86 -155h-61l58 155h89zM290 418q-70 0 -114 -48t-44 -120t44 -120t114 -48t113 48t43 120t-43 120t-113 48zM290 510q107 0 183.5 -76.5t76.5 -183.5t-76.5 -183.5t-183.5 -76.5t-183.5 76.5t-76.5 183.5t76.5 183.5t183.5 76.5z" />
    <glyph glyph-name="ocircumflex" unicode="&#xf4;" horiz-adv-x="580" 
d="M116 570l133 154h80l134 -154h-87l-85 71h-4l-84 -71h-87zM290 418q-70 0 -114 -48t-44 -120t44 -120t114 -48t113 48t43 120t-43 120t-113 48zM290 510q107 0 183.5 -76.5t76.5 -183.5t-76.5 -183.5t-183.5 -76.5t-183.5 76.5t-76.5 183.5t76.5 183.5t183.5 76.5z" />
    <glyph glyph-name="otilde" unicode="&#xf5;" horiz-adv-x="580" 
d="M420 688l70 -29q-2 -3 -6.5 -8.5t-18 -19t-27.5 -23.5t-35.5 -18.5t-41.5 -8.5h-3q-36 1 -71.5 17.5t-68.5 16.5q-13 0 -28 -11.5t-23 -22.5l-8 -11l-69 29q2 3 6.5 9t19 22t29 27.5t35.5 21.5t41 10h2q37 0 73 -17.5t64 -17.5q13 0 28 8.5t24 16.5zM290 418
q-70 0 -114 -48t-44 -120t44 -120t114 -48t113 48t43 120t-43 120t-113 48zM290 510q107 0 183.5 -76.5t76.5 -183.5t-76.5 -183.5t-183.5 -76.5t-183.5 76.5t-76.5 183.5t76.5 183.5t183.5 76.5z" />
    <glyph glyph-name="odieresis" unicode="&#xf6;" horiz-adv-x="580" 
d="M338 670h100v-100h-100v100zM142 670h100v-100h-100v100zM290 418q-70 0 -114 -48t-44 -120t44 -120t114 -48t113 48t43 120t-43 120t-113 48zM290 510q107 0 183.5 -76.5t76.5 -183.5t-76.5 -183.5t-183.5 -76.5t-183.5 76.5t-76.5 183.5t76.5 183.5t183.5 76.5z" />
    <glyph glyph-name="divide" unicode="&#xf7;" horiz-adv-x="599" 
d="M250 200h100v-100h-100v100zM250 600h100v-100h-100v100zM550 390v-80h-500v80h500z" />
    <glyph glyph-name="oslash" unicode="&#xf8;" horiz-adv-x="620" 
d="M421 371l-163 -282q25 -9 52 -9q70 0 113 48t43 120q0 75 -45 123zM310 417q-70 0 -114 -48.5t-44 -120.5q0 -74 47 -122l163 282q-25 9 -52 9zM459 576h81l-71 -122q47 -37 74 -90.5t27 -115.5q0 -107 -76.5 -183.5t-183.5 -76.5q-51 0 -98 20l-51 -87h-80l70 122
q-47 37 -74 90.5t-27 114.5q0 108 76.5 184.5t183.5 76.5q51 0 99 -20z" />
    <glyph glyph-name="ugrave" unicode="&#xf9;" 
d="M169 724h89l58 -154h-61zM50 500h100v-248q0 -88 39 -131.5t93 -43.5q73 0 111 44.5t38 130.5v248h90v-277q0 -99 -64.5 -166t-174.5 -67q-17 0 -32 1t-39.5 6.5t-45 14.5t-42.5 26.5t-37.5 41.5t-25.5 61t-10 82v277z" />
    <glyph glyph-name="uacute" unicode="&#xfa;" 
d="M402 725l-86 -155h-61l58 155h89zM50 500h100v-248q0 -88 39 -131.5t93 -43.5q73 0 111 44.5t38 130.5v248h90v-277q0 -99 -64.5 -166t-174.5 -67q-17 0 -32 1t-39.5 6.5t-45 14.5t-42.5 26.5t-37.5 41.5t-25.5 61t-10 82v277z" />
    <glyph glyph-name="ucircumflex" unicode="&#xfb;" 
d="M112 570l133 154h80l134 -154h-87l-85 71h-4l-84 -71h-87zM50 500h100v-248q0 -88 39 -131.5t93 -43.5q73 0 111 44.5t38 130.5v248h90v-277q0 -99 -64.5 -166t-174.5 -67q-17 0 -32 1t-39.5 6.5t-45 14.5t-42.5 26.5t-37.5 41.5t-25.5 61t-10 82v277z" />
    <glyph glyph-name="udieresis" unicode="&#xfc;" 
d="M333 670h100v-100h-100v100zM137 670h100v-100h-100v100zM50 500h100v-248q0 -88 39 -131.5t93 -43.5q73 0 111 44.5t38 130.5v248h90v-277q0 -99 -64.5 -166t-174.5 -67q-17 0 -32 1t-39.5 6.5t-45 14.5t-42.5 26.5t-37.5 41.5t-25.5 61t-10 82v277z" />
    <glyph glyph-name="yacute" unicode="&#xfd;" 
d="M383 725l-86 -155h-61l58 155h89zM426 499l95 -1v-275v-1v-1q-1 -191 -3 -258q-1 -42 -14.5 -80t-42 -71.5t-79 -53.5t-116.5 -20q-36 0 -71 8.5t-59 20.5t-43 24t-28 20l-9 9l68 68q8 -7 21.5 -16.5t50 -25.5t67.5 -16h3q69 1 112 32.5t43 99.5v78q-24 -24 -61.5 -38
t-77.5 -14q-17 0 -32 1.5t-39.5 6.5t-45 14t-42.5 27t-37.5 41.5t-25.5 60.5t-10 83v276h100v-247q0 -88 39 -132t93 -44q144 0 144 176v248z" />
    <glyph glyph-name="thorn" unicode="&#xfe;" horiz-adv-x="600" 
d="M310 510q117 -1 188.5 -73t71.5 -187q0 -111 -65 -186t-174 -75q-117 0 -173 62l-8 10v-312h-100v251v250v500h100v-307q75 67 159 67h1zM150 255v-9q2 -70 46.5 -118t113.5 -48q70 0 115 49t45 121t-45 121t-115 49q-69 0 -113.5 -47t-46.5 -118z" />
    <glyph glyph-name="ydieresis" unicode="&#xff;" 
d="M337 670h100v-100h-100v100zM141 670h100v-100h-100v100zM426 499l95 -1v-275v-1v-1q-1 -191 -3 -258q-1 -42 -14.5 -80t-42 -71.5t-79 -53.5t-116.5 -20q-36 0 -71 8.5t-59 20.5t-43 24t-28 20l-9 9l68 68q8 -7 21.5 -16.5t50 -25.5t67.5 -16h3q69 1 112 32.5t43 99.5
v78q-24 -24 -61.5 -38t-77.5 -14q-17 0 -32 1.5t-39.5 6.5t-45 14t-42.5 27t-37.5 41.5t-25.5 60.5t-10 83v276h100v-247q0 -88 39 -132t93 -44q144 0 144 176v248z" />
    <glyph glyph-name="Amacron" unicode="&#x100;" horiz-adv-x="657" 
d="M196 835h266v-65h-266v65zM329 621q-47 0 -86 -17t-66 -57t-27 -97v-169h348v169q0 78 -45.5 124t-123.5 47zM50 450q0 46 17 91t49.5 83.5t88 62t124.5 23.5t122.5 -20.5t86 -57t49 -82.5t16.5 -100v-450h-105v196h-348v-196h-100v450z" />
    <glyph glyph-name="amacron" unicode="&#x101;" horiz-adv-x="600" 
d="M163 635h266v-65h-266v65zM300 420q-70 0 -115 -49t-45 -121t45 -121t115 -49t117 49t47 120.5t-47 121t-117 49.5zM300 510q50 0 95.5 -15.5t83 -45.5t59.5 -81.5t22 -117.5v-250h-100v64q-2 -3 -7.5 -8.5t-20.5 -18t-33 -22.5t-45.5 -18t-56.5 -8h-1
q-116 0 -187.5 76.5t-71.5 185.5q0 48 16 93.5t47 83t82.5 60t115.5 22.5h2z" />
    <glyph glyph-name="Abreve" unicode="&#x102;" horiz-adv-x="657" 
d="M231 850h57q0 -15 12.5 -26t28.5 -11t28.5 11t12.5 26h57q1 -41 -28 -69t-70 -28t-70 27.5t-28 69.5zM329 621q-47 0 -86 -17t-66 -57t-27 -97v-169h348v169q0 78 -45.5 124t-123.5 47zM50 450q0 46 17 91t49.5 83.5t88 62t124.5 23.5t122.5 -20.5t86 -57t49 -82.5
t16.5 -100v-450h-105v196h-348v-196h-100v450z" />
    <glyph glyph-name="abreve" unicode="&#x103;" horiz-adv-x="600" 
d="M197 647h57q0 -15 12.5 -26t28.5 -11t28.5 11t12.5 26h57q1 -41 -28 -69t-70 -28t-70 27.5t-28 69.5zM300 420q-70 0 -115 -49t-45 -121t45 -121t115 -49t117 49t47 120.5t-47 121t-117 49.5zM300 510q50 0 95.5 -15.5t83 -45.5t59.5 -81.5t22 -117.5v-250h-100v64
q-2 -3 -7.5 -8.5t-20.5 -18t-33 -22.5t-45.5 -18t-56.5 -8h-1q-116 0 -187.5 76.5t-71.5 185.5q0 48 16 93.5t47 83t82.5 60t115.5 22.5h2z" />
    <glyph glyph-name="Aogonek" unicode="&#x104;" horiz-adv-x="657" 
d="M500 8h74q-9 -28 -9 -51q0 -36 22 -56t67 -20q10 0 22 1l1 -73q-20 -2 -39 -2q-71 0 -109 34t-38 99q0 31 9 68zM329 621q-47 0 -86 -17t-66 -57t-27 -97v-169h348v169q0 78 -45.5 124t-123.5 47zM50 450q0 46 17 91t49.5 83.5t88 62t124.5 23.5t122.5 -20.5t86 -57
t49 -82.5t16.5 -100v-450h-105v196h-348v-196h-100v450z" />
    <glyph glyph-name="aogonek" unicode="&#x105;" horiz-adv-x="600" 
d="M462 6h74q-9 -28 -9 -51q0 -36 22 -56t67 -20q10 0 22 1l1 -73q-20 -2 -39 -2q-71 0 -109 34t-38 99q0 31 9 68zM300 420q-70 0 -115 -49t-45 -121t45 -121t115 -49t117 49t47 120.5t-47 121t-117 49.5zM300 510q50 0 95.5 -15.5t83 -45.5t59.5 -81.5t22 -117.5v-250
h-100v64q-2 -3 -7.5 -8.5t-20.5 -18t-33 -22.5t-45.5 -18t-56.5 -8h-1q-116 0 -187.5 76.5t-71.5 185.5q0 48 16 93.5t47 83t82.5 60t115.5 22.5h2z" />
    <glyph glyph-name="Cacute" unicode="&#x106;" horiz-adv-x="645" 
d="M415 924l-86 -155h-61l58 155h89zM368 709q72 0 123 -23.5t97 -75.5l-64 -66q-37 36 -71 53.5t-85 17.5q-63 0 -117.5 -39.5t-85 -100.5t-30.5 -126t30.5 -126.5t85 -100.5t117.5 -39q50 0 96 22t77 61l74 -67q-46 -52 -109.5 -81t-137.5 -29q-97 0 -175 48.5
t-120.5 130.5t-42.5 180.5t42.5 181t120.5 131t175 48.5z" />
    <glyph glyph-name="cacute" unicode="&#x107;" horiz-adv-x="511" 
d="M367 725l-86 -155h-61l58 155h89zM290 510q56 0 105.5 -22t85.5 -62l-68 -68q-44 60 -123 60q-70 0 -114 -48t-44 -120t44 -120t114 -48q79 0 123 60l68 -68q-36 -40 -85.5 -62t-105.5 -22q-107 0 -183.5 76.5t-76.5 183.5t76.5 183.5t183.5 76.5z" />
    <glyph glyph-name="Ccaron" unicode="&#x10c;" horiz-adv-x="645" 
d="M174 923h87l84 -71h4l85 71h87l-134 -154h-80zM368 709q72 0 123 -23.5t97 -75.5l-64 -66q-37 36 -71 53.5t-85 17.5q-63 0 -117.5 -39.5t-85 -100.5t-30.5 -126t30.5 -126.5t85 -100.5t117.5 -39q50 0 96 22t77 61l74 -67q-46 -52 -109.5 -81t-137.5 -29
q-97 0 -175 48.5t-120.5 130.5t-42.5 180.5t42.5 181t120.5 131t175 48.5z" />
    <glyph glyph-name="ccaron" unicode="&#x10d;" horiz-adv-x="511" 
d="M116 724h87l84 -71h4l85 71h87l-134 -154h-80zM290 510q56 0 105.5 -22t85.5 -62l-68 -68q-44 60 -123 60q-70 0 -114 -48t-44 -120t44 -120t114 -48q79 0 123 60l68 -68q-36 -40 -85.5 -62t-105.5 -22q-107 0 -183.5 76.5t-76.5 183.5t76.5 183.5t183.5 76.5z" />
    <glyph glyph-name="Dcaron" unicode="&#x10e;" horiz-adv-x="621" 
d="M87 923h87l84 -71h4l85 71h87l-134 -154h-80zM293 606h-143v-512h143q47 0 82 21t54 58t28 81t9 96t-9 95.5t-28 81t-54 58.5t-82 21zM50 700h81h81h81q72 0 126.5 -26.5t87 -74.5t48.5 -110.5t16 -138.5t-16 -138.5t-48.5 -110.5t-87 -74.5t-126.5 -26.5h-96.5h-105.5
h-41v700z" />
    <glyph glyph-name="dcaron" unicode="&#x10f;" horiz-adv-x="779" 
d="M290 79q70 0 117 49.5t47 121t-47 120.5t-117 49t-115 -49t-45 -121t45 -121t115 -49zM290 -11q-116 0 -188 72.5t-72 187.5q0 114 63 187t184 74h2q33 0 62.5 -7.5t48.5 -18.5t33.5 -22.5t20.5 -18.5l6 -8v315h100v-501q0 -66 -22.5 -117.5t-60.5 -82t-83 -45.5t-94 -15
zM730 750l-86 -155h-61l58 155h89z" />
    <glyph glyph-name="Dcroat" unicode="&#x110;" horiz-adv-x="687" 
d="M359 606h-143v-208h138v-70h-138v-234h143q47 0 82 21t54 58t28 81t9 96t-9 95.5t-28 81t-54 58.5t-82 21zM116 700h81h81h81q72 0 126.5 -26.5t87 -74.5t48.5 -110.5t16 -138.5t-16 -138.5t-48.5 -110.5t-87 -74.5t-126.5 -26.5h-96.5h-105.5h-41v328h-76v70h76v302z
" />
    <glyph glyph-name="dcroat" unicode="&#x111;" horiz-adv-x="664" 
d="M290 -11q-116 0 -188 72.5t-72 187.5q0 114 63 187t184 74h2q33 0 62.5 -7.5t48.5 -18.5t33.5 -22.5t20.5 -18.5l6 -8v175h-119v70h119v70h100v-70h64v-70h-64v-361q0 -66 -22.5 -117.5t-60.5 -82t-83 -45.5t-94 -15zM290 79q70 0 117 49.5t47 121t-47 120.5t-117 49
t-115 -49t-45 -121t45 -121t115 -49z" />
    <glyph glyph-name="Emacron" unicode="&#x112;" horiz-adv-x="577" 
d="M153 834h266v-65h-266v65zM310 700h192v-90h-192q-71 0 -115.5 -45t-44.5 -116v-43h321v-85h-321v-72q0 -71 44.5 -114.5t115.5 -43.5h207v-91h-207q-108 0 -184 71.5t-76 177.5v200q0 106 76 178.5t184 72.5z" />
    <glyph glyph-name="emacron" unicode="&#x113;" 
d="M154 635h266v-65h-266v65zM287 413q-56 0 -96 -28.5t-55 -78.5h299q-15 50 -53.5 78.5t-94.5 28.5zM130 224q9 -61 52 -101.5t105 -40.5q79 0 123 60l68 -68q-36 -40 -85.5 -62t-105.5 -22q-107 0 -182 76t-75 184t75 184t182 76t180.5 -76t73.5 -184q0 -10 -1 -26
q-82 1 -173 1q-87 0 -237 -1z" />
    <glyph glyph-name="Edotaccent" unicode="&#x116;" horiz-adv-x="577" 
d="M256 869h100v-100h-100v100zM310 700h192v-90h-192q-71 0 -115.5 -45t-44.5 -116v-43h321v-85h-321v-72q0 -71 44.5 -114.5t115.5 -43.5h207v-91h-207q-108 0 -184 71.5t-76 177.5v200q0 106 76 178.5t184 72.5z" />
    <glyph glyph-name="edotaccent" unicode="&#x117;" 
d="M237 670h100v-100h-100v100zM287 413q-56 0 -96 -28.5t-55 -78.5h299q-15 50 -53.5 78.5t-94.5 28.5zM130 224q9 -61 52 -101.5t105 -40.5q79 0 123 60l68 -68q-36 -40 -85.5 -62t-105.5 -22q-107 0 -182 76t-75 184t75 184t182 76t180.5 -76t73.5 -184q0 -10 -1 -26
q-82 1 -173 1q-87 0 -237 -1z" />
    <glyph glyph-name="Eogonek" unicode="&#x118;" horiz-adv-x="577" 
d="M384 5h74q-9 -28 -9 -51q0 -36 22 -56t67 -20q10 0 22 1l1 -73q-20 -2 -39 -2q-71 0 -109 34t-38 99q0 31 9 68zM310 700h192v-90h-192q-71 0 -115.5 -45t-44.5 -116v-43h321v-85h-321v-72q0 -71 44.5 -114.5t115.5 -43.5h207v-91h-207q-108 0 -184 71.5t-76 177.5v200
q0 106 76 178.5t184 72.5z" />
    <glyph glyph-name="eogonek" unicode="&#x119;" 
d="M271 -4h74q-9 -28 -9 -51q0 -36 22 -56t67 -20q10 0 22 1l1 -73q-20 -2 -39 -2q-71 0 -109 34t-38 99q0 31 9 68zM287 413q-56 0 -96 -28.5t-55 -78.5h299q-15 50 -53.5 78.5t-94.5 28.5zM130 224q9 -61 52 -101.5t105 -40.5q79 0 123 60l68 -68q-36 -40 -85.5 -62
t-105.5 -22q-107 0 -182 76t-75 184t75 184t182 76t180.5 -76t73.5 -184q0 -10 -1 -26q-82 1 -173 1q-87 0 -237 -1z" />
    <glyph glyph-name="Ecaron" unicode="&#x11a;" horiz-adv-x="577" 
d="M142 923h87l84 -71h4l85 71h87l-134 -154h-80zM310 700h192v-90h-192q-71 0 -115.5 -45t-44.5 -116v-43h321v-85h-321v-72q0 -71 44.5 -114.5t115.5 -43.5h207v-91h-207q-108 0 -184 71.5t-76 177.5v200q0 106 76 178.5t184 72.5z" />
    <glyph glyph-name="ecaron" unicode="&#x11b;" 
d="M113 724h87l84 -71h4l85 71h87l-134 -154h-80zM287 413q-56 0 -96 -28.5t-55 -78.5h299q-15 50 -53.5 78.5t-94.5 28.5zM130 224q9 -61 52 -101.5t105 -40.5q79 0 123 60l68 -68q-36 -40 -85.5 -62t-105.5 -22q-107 0 -182 76t-75 184t75 184t182 76t180.5 -76t73.5 -184
q0 -10 -1 -26q-82 1 -173 1q-87 0 -237 -1z" />
    <glyph glyph-name="Gbreve" unicode="&#x11e;" horiz-adv-x="665" 
d="M270 866h57q0 -15 12.5 -26t28.5 -11t28.5 11t12.5 26h57q1 -41 -28 -69t-70 -28t-70 27.5t-28 69.5zM368 709q72 0 123 -23.5t97 -75.5l-67 -74q-34 39 -68 59t-85 20q-63 0 -117.5 -39.5t-85 -100.5t-30.5 -126t30.5 -126.5t85 -100.5t117.5 -39q84 0 147 55v140h-192
v85h292v-32v-232q-46 -52 -109.5 -81t-137.5 -29q-97 0 -175 48.5t-120.5 130.5t-42.5 180.5t42.5 181t120.5 131t175 48.5z" />
    <glyph glyph-name="gbreve" unicode="&#x11f;" horiz-adv-x="600" 
d="M202 667h57q0 -15 12.5 -26t28.5 -11t28.5 11t12.5 26h57q1 -41 -28 -69t-70 -28t-70 27.5t-28 69.5zM300 420q-70 0 -115 -49t-45 -121t45 -121t115 -49t117 49t47 120.5t-47 121t-117 49.5zM300 510q48 -1 92 -16.5t83 -45t62 -81t23 -117.5v-126v-120q0 -21 -2 -41.5
t-9.5 -47.5t-20 -51t-34.5 -48t-51 -40.5t-73 -27.5t-97 -11q-36 0 -69 9t-54.5 21t-37.5 24.5t-23 21.5l-7 8l68 68q2 -2 5.5 -6t16.5 -14.5t27.5 -18.5t38.5 -14.5t50 -6.5q4 0 8 1q164 6 164 159v75q-2 -3 -6.5 -8t-20 -18t-32.5 -23t-43.5 -18t-53.5 -8h-4
q-121 2 -190.5 76t-69.5 185q0 115 72 187.5t188 72.5z" />
    <glyph glyph-name="Imacron" unicode="&#x12a;" horiz-adv-x="205" 
d="M-33 834h266v-65h-266v65zM50 0v700h105v-700h-105z" />
    <glyph glyph-name="imacron" unicode="&#x12b;" horiz-adv-x="200" 
d="M-33 635h266v-65h-266v65zM50 500h100v-500h-100v500z" />
    <glyph glyph-name="Idotaccent" unicode="&#x130;" horiz-adv-x="205" 
d="M50 869h100v-100h-100v100zM50 0v700h105v-700h-105z" />
    <glyph glyph-name="dotlessi" unicode="&#x131;" horiz-adv-x="200" 
d="M50 500h100v-500h-100v500z" />
    <glyph glyph-name="Lslash" unicode="&#x141;" horiz-adv-x="605" 
d="M122 710h100v-293l119 119v-92l-119 -119v-65q0 -72 45.5 -123.5t114.5 -51.5h173v-85h-173q-98 0 -172 65.5t-86 161.5l-74 -74v92l72 72v393z" />
    <glyph glyph-name="lslash" unicode="&#x142;" horiz-adv-x="329" 
d="M115 750h100v-345l65 64v-92l-65 -64v-313h-100v213l-65 -65v92l65 64v446z" />
    <glyph glyph-name="Nacute" unicode="&#x143;" horiz-adv-x="658" 
d="M446 924l-86 -155h-61l58 155h89zM50 700h106l357 -536v536h95v-700h-105l-357 536v-536h-96v700z" />
    <glyph glyph-name="nacute" unicode="&#x144;" 
d="M382 726l-86 -155h-61l58 155h89zM521 1h-100v248q0 84 -36.5 129.5t-104.5 45.5q-66 0 -100.5 -45t-34.5 -131v-248l-95 1v276q0 99 64.5 166.5t175.5 67.5q16 0 31 -1t39.5 -6.5t45 -14.5t43 -26.5t37.5 -41.5t25 -61t10 -83v-276z" />
    <glyph glyph-name="Ncaron" unicode="&#x147;" horiz-adv-x="658" 
d="M155 923h87l84 -71h4l85 71h87l-134 -154h-80zM50 700h106l357 -536v536h95v-700h-105l-357 536v-536h-96v700z" />
    <glyph glyph-name="ncaron" unicode="&#x148;" 
d="M112 725h87l84 -71h4l85 71h87l-134 -154h-80zM521 1h-100v248q0 84 -36.5 129.5t-104.5 45.5q-66 0 -100.5 -45t-34.5 -131v-248l-95 1v276q0 99 64.5 166.5t175.5 67.5q16 0 31 -1t39.5 -6.5t45 -14.5t43 -26.5t37.5 -41.5t25 -61t10 -83v-276z" />
    <glyph glyph-name="Omacron" unicode="&#x14c;" horiz-adv-x="718" 
d="M226 834h266v-65h-266v65zM359.5 606q-98.5 0 -165 -74t-66.5 -183.5t66.5 -183.5t165 -74t165 74t66.5 183.5t-66.5 183.5t-165 74zM359.5 709q92.5 0 171 -49t123.5 -131.5t45 -179.5t-45 -180t-123.5 -131.5t-171 -48.5t-171 48.5t-123.5 131.5t-45 180t45 179.5
t123.5 131.5t171 49z" />
    <glyph glyph-name="Ohungarumlaut" unicode="&#x150;" horiz-adv-x="718" 
d="M386 924l-86 -155h-61l58 155h89zM526 924l-86 -155h-61l58 155h89zM359.5 606q-98.5 0 -165 -74t-66.5 -183.5t66.5 -183.5t165 -74t165 74t66.5 183.5t-66.5 183.5t-165 74zM359.5 709q92.5 0 171 -49t123.5 -131.5t45 -179.5t-45 -180t-123.5 -131.5t-171 -48.5
t-171 48.5t-123.5 131.5t-45 180t45 179.5t123.5 131.5t171 49z" />
    <glyph glyph-name="ohungarumlaut" unicode="&#x151;" horiz-adv-x="580" 
d="M327 725l-86 -155h-61l58 155h89zM467 725l-86 -155h-61l58 155h89zM290 418q-70 0 -114 -48t-44 -120t44 -120t114 -48t113 48t43 120t-43 120t-113 48zM290 510q107 0 183.5 -76.5t76.5 -183.5t-76.5 -183.5t-183.5 -76.5t-183.5 76.5t-76.5 183.5t76.5 183.5
t183.5 76.5z" />
    <glyph glyph-name="OE" unicode="&#x152;" horiz-adv-x="1018" 
d="M339.5 606q-93.5 0 -137.5 -70t-44 -187.5t44 -187.5t137.5 -70t137.5 70t44 187.5t-44 187.5t-137.5 70zM781 700h172v-90h-172q-70 0 -113.5 -46t-43.5 -117v-43h301l2 -83h-301v-1l-1 -71q0 -71 43 -114.5t113 -43.5h187v-91h-187q-67 0 -124.5 29t-92.5 81
q-79 -121 -225 -121q-91 0 -158 49.5t-99 130t-32 180.5t32 180.5t99 130t158 49.5q146 0 225 -121q35 52 92.5 82t124.5 30z" />
    <glyph glyph-name="oe" unicode="&#x153;" horiz-adv-x="991" 
d="M300 418q-69 0 -108.5 -47.5t-39.5 -120.5t39.5 -120.5t108.5 -47.5q70 0 114.5 48t44.5 120t-44.5 120t-114.5 48zM697 413q-108 0 -141 -107h279q-32 107 -138 107zM550 224v0q9 -63 47.5 -102.5t99.5 -39.5q69 0 113 60l68 -68q-78 -84 -181 -84q-61 0 -111.5 26.5
t-84.5 72.5q-34 -46 -85.5 -72.5t-114.5 -26.5h-1q-106 0 -178 76t-72 184t72 184t178 76q61 0 113 -27t87 -74q34 47 85 74t112 27q106 0 175 -75.5t69 -184.5q0 -10 -1 -26q-82 1 -173 1q-66 0 -217 -1z" />
    <glyph glyph-name="Racute" unicode="&#x154;" horiz-adv-x="581" 
d="M338 924l-86 -155h-61l58 155h89zM293 610h-143v-246h73h70q64 0 99.5 34.5t35.5 93.5q0 48 -37 83t-98 35zM50 700h81.5h82.5h79q53 0 95 -13t68 -33.5t43 -48.5t23.5 -55.5t6.5 -57.5q0 -45 -13 -84t-47 -73t-87 -49l172 -286h-113l-165 275h-63.5h-62.5v-275h-100v700
z" />
    <glyph glyph-name="racute" unicode="&#x155;" horiz-adv-x="360" 
d="M317 725l-86 -155h-61l58 155h89zM310 511v-115q-71 0 -115.5 -40t-44.5 -105v-250h-100v250q0 120 71.5 190t188.5 70z" />
    <glyph glyph-name="Rcaron" unicode="&#x158;" horiz-adv-x="581" 
d="M78 923h87l84 -71h4l85 71h87l-134 -154h-80zM293 610h-143v-246h73h70q64 0 99.5 34.5t35.5 93.5q0 48 -37 83t-98 35zM50 700h81.5h82.5h79q53 0 95 -13t68 -33.5t43 -48.5t23.5 -55.5t6.5 -57.5q0 -45 -13 -84t-47 -73t-87 -49l172 -286h-113l-165 275h-63.5h-62.5
v-275h-100v700z" />
    <glyph glyph-name="rcaron" unicode="&#x159;" horiz-adv-x="360" 
d="M6 724h87l84 -71h4l85 71h87l-134 -154h-80zM310 511v-115q-71 0 -115.5 -40t-44.5 -105v-250h-100v250q0 120 71.5 190t188.5 70z" />
    <glyph glyph-name="Sacute" unicode="&#x15a;" horiz-adv-x="474" 
d="M336 924l-86 -155h-61l58 155h89zM404 700v-90h-133q-59 0 -86.5 -23t-27.5 -60q0 -13 4 -27q5 -21 26 -43.5t49 -41.5t60 -42.5t59.5 -47.5t47 -57.5t23.5 -69.5q1 -9 1 -18q0 -24 -6 -47t-21.5 -48t-39 -43t-63.5 -30t-91 -12h-151v91h155q49 0 79 27.5t30 61.5
t-24.5 65.5t-61.5 58t-74.5 53.5t-68 64t-38.5 77q-1 7 -1 17q0 19 5 40.5t19.5 48.5t37.5 47.5t64 34.5t94 14h133z" />
    <glyph glyph-name="sacute" unicode="&#x15b;" horiz-adv-x="388" 
d="M289 726l-86 -155h-61l58 155h89zM317 500v-88h-102q-75 0 -75 -48v-6q2 -15 23 -31.5t49.5 -32.5t57.5 -36t48.5 -50.5t19.5 -67.5q0 -9 -1 -20q-17 -120 -168 -120h-112v89h115h3q32 0 52.5 13.5t20.5 34.5q0 4 -1 9q-4 17 -26 33t-50 31t-55.5 33.5t-46.5 47.5t-19 66
q0 67 48.5 105t116.5 38h102z" />
    <glyph glyph-name="Scedilla" unicode="&#x15e;" horiz-adv-x="474" 
d="M252 27q9 -37 9 -68q0 -65 -38 -99t-109 -34q-19 0 -39 2l1 73q12 -1 22 -1q45 0 67 20t22 56q0 23 -9 51h74zM404 700v-90h-133q-59 0 -86.5 -23t-27.5 -60q0 -13 4 -27q5 -21 26 -43.5t49 -41.5t60 -42.5t59.5 -47.5t47 -57.5t23.5 -69.5q1 -9 1 -18q0 -24 -6 -47
t-21.5 -48t-39 -43t-63.5 -30t-91 -12h-151v91h155q49 0 79 27.5t30 61.5t-24.5 65.5t-61.5 58t-74.5 53.5t-68 64t-38.5 77q-1 7 -1 17q0 19 5 40.5t19.5 48.5t37.5 47.5t64 34.5t94 14h133z" />
    <glyph glyph-name="scedilla" unicode="&#x15f;" horiz-adv-x="388" 
d="M250 28q9 -37 9 -68q0 -65 -38 -99t-109 -34q-19 0 -39 2l1 73q12 -1 22 -1q45 0 67 20t22 56q0 23 -9 51h74zM317 500v-88h-102q-75 0 -75 -48v-6q2 -15 23 -31.5t49.5 -32.5t57.5 -36t48.5 -50.5t19.5 -67.5q0 -9 -1 -20q-17 -120 -168 -120h-112v89h115h3
q32 0 52.5 13.5t20.5 34.5q0 4 -1 9q-4 17 -26 33t-50 31t-55.5 33.5t-46.5 47.5t-19 66q0 67 48.5 105t116.5 38h102z" />
    <glyph glyph-name="Scaron" unicode="&#x160;" horiz-adv-x="474" 
d="M56 923h87l84 -71h4l85 71h87l-134 -154h-80zM404 700v-90h-133q-59 0 -86.5 -23t-27.5 -60q0 -13 4 -27q5 -21 26 -43.5t49 -41.5t60 -42.5t59.5 -47.5t47 -57.5t23.5 -69.5q1 -9 1 -18q0 -24 -6 -47t-21.5 -48t-39 -43t-63.5 -30t-91 -12h-151v91h155q49 0 79 27.5
t30 61.5t-24.5 65.5t-61.5 58t-74.5 53.5t-68 64t-38.5 77q-1 7 -1 17q0 19 5 40.5t19.5 48.5t37.5 47.5t64 34.5t94 14h133z" />
    <glyph glyph-name="scaron" unicode="&#x161;" horiz-adv-x="388" 
d="M8 725h87l84 -71h4l85 71h87l-134 -154h-80zM317 500v-88h-102q-75 0 -75 -48v-6q2 -15 23 -31.5t49.5 -32.5t57.5 -36t48.5 -50.5t19.5 -67.5q0 -9 -1 -20q-17 -120 -168 -120h-112v89h115h3q32 0 52.5 13.5t20.5 34.5q0 4 -1 9q-4 17 -26 33t-50 31t-55.5 33.5
t-46.5 47.5t-19 66q0 67 48.5 105t116.5 38h102z" />
    <glyph glyph-name="Umacron" unicode="&#x16a;" horiz-adv-x="657" 
d="M196 834h266v-65h-266v65zM608 700v-451q0 -49 -16 -93.5t-47.5 -83t-87.5 -61t-128 -22.5q-69 0 -123.5 21t-88 57t-50.5 82.5t-17 99.5v451h110v-451q0 -78 45.5 -124t123.5 -47q47 0 86 17t66 57t27 97v451h100z" />
    <glyph glyph-name="umacron" unicode="&#x16b;" 
d="M153 635h266v-65h-266v65zM50 500h100v-248q0 -88 39 -131.5t93 -43.5q73 0 111 44.5t38 130.5v248h90v-277q0 -99 -64.5 -166t-174.5 -67q-17 0 -32 1t-39.5 6.5t-45 14.5t-42.5 26.5t-37.5 41.5t-25.5 61t-10 82v277z" />
    <glyph glyph-name="Uring" unicode="&#x16e;" horiz-adv-x="657" 
d="M328 804q-5 0 -11 -1.5t-14 -10t-8 -22.5q0 -13 9.5 -22t23.5 -9h1q15 0 24.5 9t9.5 25q0 13 -8 22t-26 9h-1zM328 854q43 0 69.5 -21.5t26.5 -58.5t-25 -61t-70 -24h-1q-42 0 -67.5 23t-25.5 59q0 41 26.5 62t66.5 21zM608 700v-451q0 -49 -16 -93.5t-47.5 -83
t-87.5 -61t-128 -22.5q-69 0 -123.5 21t-88 57t-50.5 82.5t-17 99.5v451h110v-451q0 -78 45.5 -124t123.5 -47q47 0 86 17t66 57t27 97v451h100z" />
    <glyph glyph-name="uring" unicode="&#x16f;" 
d="M284 685q-5 0 -11 -1.5t-14 -10t-8 -22.5q0 -13 9.5 -22t23.5 -9h1q15 0 24.5 9t9.5 25q0 13 -8 22t-26 9h-1zM284 735q43 0 69.5 -21.5t26.5 -58.5t-25 -61t-70 -24h-1q-42 0 -67.5 23t-25.5 59q0 41 26.5 62t66.5 21zM50 500h100v-248q0 -88 39 -131.5t93 -43.5
q73 0 111 44.5t38 130.5v248h90v-277q0 -99 -64.5 -166t-174.5 -67q-17 0 -32 1t-39.5 6.5t-45 14.5t-42.5 26.5t-37.5 41.5t-25.5 61t-10 82v277z" />
    <glyph glyph-name="Uhungarumlaut" unicode="&#x170;" horiz-adv-x="657" 
d="M346 924l-86 -155h-61l58 155h89zM486 924l-86 -155h-61l58 155h89zM608 700v-451q0 -49 -16 -93.5t-47.5 -83t-87.5 -61t-128 -22.5q-69 0 -123.5 21t-88 57t-50.5 82.5t-17 99.5v451h110v-451q0 -78 45.5 -124t123.5 -47q47 0 86 17t66 57t27 97v451h100z" />
    <glyph glyph-name="uhungarumlaut" unicode="&#x171;" 
d="M312 725l-86 -155h-61l58 155h89zM452 725l-86 -155h-61l58 155h89zM50 500h100v-248q0 -88 39 -131.5t93 -43.5q73 0 111 44.5t38 130.5v248h90v-277q0 -99 -64.5 -166t-174.5 -67q-17 0 -32 1t-39.5 6.5t-45 14.5t-42.5 26.5t-37.5 41.5t-25.5 61t-10 82v277z" />
    <glyph glyph-name="Uogonek" unicode="&#x172;" horiz-adv-x="657" 
d="M326 -5h74q-9 -28 -9 -51q0 -36 22 -56t67 -20q10 0 22 1l1 -73q-20 -2 -39 -2q-71 0 -109 34t-38 99q0 31 9 68zM608 700v-451q0 -49 -16 -93.5t-47.5 -83t-87.5 -61t-128 -22.5q-69 0 -123.5 21t-88 57t-50.5 82.5t-17 99.5v451h110v-451q0 -78 45.5 -124t123.5 -47
q47 0 86 17t66 57t27 97v451h100z" />
    <glyph glyph-name="uogonek" unicode="&#x173;" 
d="M270 -4h74q-9 -28 -9 -51q0 -36 22 -56t67 -20q10 0 22 1l1 -73q-20 -2 -39 -2q-71 0 -109 34t-38 99q0 31 9 68zM50 500h100v-248q0 -88 39 -131.5t93 -43.5q73 0 111 44.5t38 130.5v248h90v-277q0 -99 -64.5 -166t-174.5 -67q-17 0 -32 1t-39.5 6.5t-45 14.5
t-42.5 26.5t-37.5 41.5t-25.5 61t-10 82v277z" />
    <glyph glyph-name="Ydieresis" unicode="&#x178;" horiz-adv-x="676" 
d="M391 870h100v-100h-100v100zM195 870h100v-100h-100v100zM50 700h119l179 -309h3l179 309h97l-237 -405v-295h-105v295z" />
    <glyph glyph-name="Zacute" unicode="&#x179;" horiz-adv-x="608" 
d="M404 924l-86 -155h-61l58 155h89zM68 700h496v-73l-392 -536h398v-91h-530v74l390 535h-362v91z" />
    <glyph glyph-name="zacute" unicode="&#x17a;" horiz-adv-x="547" 
d="M360 725l-86 -155h-61l58 155h89zM60 500h443v-73l-328 -342h333v-85h-468v73l328 342h-308v85z" />
    <glyph glyph-name="Zdotaccent" unicode="&#x17b;" horiz-adv-x="608" 
d="M266 869h100v-100h-100v100zM68 700h496v-73l-392 -536h398v-91h-530v74l390 535h-362v91z" />
    <glyph glyph-name="zdotaccent" unicode="&#x17c;" horiz-adv-x="547" 
d="M232 670h100v-100h-100v100zM60 500h443v-73l-328 -342h333v-85h-468v73l328 342h-308v85z" />
    <glyph glyph-name="Zcaron" unicode="&#x17d;" horiz-adv-x="608" 
d="M142 923h87l84 -71h4l85 71h87l-134 -154h-80zM68 700h496v-73l-392 -536h398v-91h-530v74l390 535h-362v91z" />
    <glyph glyph-name="zcaron" unicode="&#x17e;" horiz-adv-x="547" 
d="M108 724h87l84 -71h4l85 71h87l-134 -154h-80zM60 500h443v-73l-328 -342h333v-85h-468v73l328 342h-308v85z" />
    <glyph glyph-name="florin" unicode="&#x192;" horiz-adv-x="729" 
d="M318 317h-104v80h119q30 170 97.5 241.5t180.5 71.5q41 0 88 -9l-21 -98q-41 12 -76 12q-80 0 -116 -45t-54 -173h143v-80h-157v-1v-2q-3 -17 -9 -50q-11 -61 -17 -90.5t-18.5 -79t-23.5 -74t-30 -57.5t-41.5 -48t-54 -26.5t-70.5 -11.5q-40 0 -123 31l32 90q9 -2 30 -9
t34 -10.5t24 -5.5q7 -1 15 -1q23 0 42.5 11t33 33.5t23.5 45t18.5 59.5t13 63t11.5 69t10 64z" />
    <glyph glyph-name="circumflex" unicode="&#x2c6;" horiz-adv-x="627" 
d="M141 600l133 154h80l134 -154h-87l-85 71h-4l-84 -71h-87z" />
    <glyph glyph-name="caron" unicode="&#x2c7;" horiz-adv-x="627" 
d="M141 754h87l84 -71h4l85 71h87l-134 -154h-80z" />
    <glyph glyph-name="uni02CA" unicode="&#x2ca;" horiz-adv-x="246" 
d="M197 754l-86 -155h-61l58 155h89z" />
    <glyph glyph-name="uni02CB" unicode="&#x2cb;" horiz-adv-x="246" 
d="M50 754h89l58 -154h-61z" />
    <glyph glyph-name="breve" unicode="&#x2d8;" horiz-adv-x="293" 
d="M49 690h57q0 -15 12.5 -26t28.5 -11t28.5 11t12.5 26h57q1 -41 -28 -69t-70 -28t-70 27.5t-28 69.5z" />
    <glyph glyph-name="dotaccent" unicode="&#x2d9;" horiz-adv-x="200" 
d="M50 740h100v-100h-100v100z" />
    <glyph glyph-name="ring" unicode="&#x2da;" horiz-adv-x="385" 
d="M193 709q-5 0 -11 -1.5t-14 -10t-8 -22.5q0 -13 9.5 -22t23.5 -9h1q15 0 24.5 9t9.5 25q0 13 -8 22t-26 9h-1zM193 759q43 0 69.5 -21.5t26.5 -58.5t-25 -61t-70 -24h-1q-42 0 -67.5 23t-25.5 59q0 41 26.5 62t66.5 21z" />
    <glyph glyph-name="ogonek" unicode="&#x2db;" horiz-adv-x="281" 
d="M54 2h74q-9 -28 -9 -51q0 -36 22 -56t67 -20q10 0 22 1l1 -73q-20 -2 -39 -2q-71 0 -109 34t-38 99q0 31 9 68z" />
    <glyph glyph-name="tilde" unicode="&#x2dc;" horiz-adv-x="539" 
d="M410 719l70 -29q-2 -3 -6.5 -8.5t-18 -19t-27.5 -23.5t-35.5 -18.5t-41.5 -8.5h-3q-36 1 -71.5 17.5t-68.5 16.5q-13 0 -28 -11.5t-23 -22.5l-8 -11l-69 29q2 3 6.5 9t19 22t29 27.5t35.5 21.5t41 10h2q37 0 73 -17.5t64 -17.5q13 0 28 8.5t24 16.5z" />
    <glyph glyph-name="hungarumlaut" unicode="&#x2dd;" horiz-adv-x="386" 
d="M197 754l-86 -155h-61l58 155h89zM337 754l-86 -155h-61l58 155h89z" />
    <glyph glyph-name="uni0394" unicode="&#x394;" horiz-adv-x="746" 
d="M367 580l-185 -483h367zM323 700h101l272 -700h-646z" />
    <glyph glyph-name="Pi" unicode="&#x3a0;" horiz-adv-x="656" 
d="M50 700h556v-700h-100v615h-355v-615h-101v700z" />
    <glyph glyph-name="Sigma" unicode="&#x3a3;" horiz-adv-x="658" 
d="M50 700h539v-101h-394l275 -238v-13l-284 -247h422v-101h-558v101l285 245v5l-285 248v0v101z" />
    <glyph glyph-name="uni03A9" unicode="&#x3a9;" horiz-adv-x="788" 
d="M394 710q68 0 124 -20t92.5 -51t61.5 -70t36 -76.5t11 -73.5q0 -9 -1 -17q-9 -96 -49 -154t-123 -104v-44h192v-100h-282l2 224q73 4 116.5 54.5t43.5 121.5q0 38 -13 74t-38.5 67t-70.5 50t-102 19h-1q-52 0 -92 -13t-64 -33t-39.5 -48.5t-21.5 -56t-6 -58.5
q0 -62 45.5 -113.5t116.5 -59.5v-228h-282v100h192v51q-73 34 -120 104t-52 147q-1 8 -1 16q0 51 20 101.5t58 93.5t102 70t142 27h3z" />
    <glyph glyph-name="uni03BC" unicode="&#x3bc;" horiz-adv-x="561" 
d="M40 499h100h1v-252q0 -75 39 -120t95.5 -45t96 45.5t39.5 119.5v252h100h1v-499h-101v60q-11 -14 -26.5 -28t-45.5 -28.5t-60 -14.5h-3q-69 1 -135 67v-366h-101v809z" />
    <glyph glyph-name="pi" unicode="&#x3c0;" horiz-adv-x="570" 
d="M50 500h471v-500h-101v415h-269v-415h-101v500z" />
    <glyph glyph-name="endash" unicode="&#x2013;" horiz-adv-x="699" 
d="M650 390v-80h-600v80h600z" />
    <glyph glyph-name="emdash" unicode="&#x2014;" horiz-adv-x="819" 
d="M760 390v-80h-700v80h700z" />
    <glyph glyph-name="quoteleft" unicode="&#x2018;" horiz-adv-x="206" 
d="M157 487h-107v96l39 117h52l-47 -106h63v-107z" />
    <glyph glyph-name="quoteright" unicode="&#x2019;" horiz-adv-x="136" 
d="M10 700h107v-96l-39 -117h-52l47 106h-63v107z" />
    <glyph glyph-name="quotedblleft" unicode="&#x201c;" horiz-adv-x="346" 
d="M297 487h-107v96l39 117h52l-47 -106h63v-107zM157 487h-107v96l39 117h52l-47 -106h63v-107z" />
    <glyph glyph-name="quotedblright" unicode="&#x201d;" horiz-adv-x="336" 
d="M30 700h107v-96l-39 -118h-52l47 107h-63v107zM180 700h107v-96l-39 -118h-52l47 107h-63v107z" />
    <glyph glyph-name="quotedblbase" unicode="&#x201e;" horiz-adv-x="308" 
d="M30 107h107v-96l-39 -117h-52l47 106h-63v107zM160 107h107v-96l-39 -117h-52l47 106h-63v107z" />
    <glyph glyph-name="dagger" unicode="&#x2020;" horiz-adv-x="569" 
d="M235 699h101l-2 -201l186 2v-90l-186 2l2 -413h-101l2 413l-187 -2v90l187 -2z" />
    <glyph glyph-name="perthousand" unicode="&#x2030;" horiz-adv-x="1184" 
d="M977 254q-77 0 -77 -92q0 -44 20.5 -70.5t56.5 -26.5q76 0 76 97q0 46 -18 69t-58 23zM631 254q-77 0 -77 -92q0 -44 20.5 -70.5t56.5 -26.5q76 0 76 97q0 46 -18 69t-58 23zM977 329h2q74 0 114.5 -47t40.5 -120q0 -76 -38 -124t-119 -48q-80 0 -119 48.5t-39 123.5
q0 73 40.5 119.5t117.5 47.5zM631 329h2q74 0 114.5 -47t40.5 -120q0 -76 -38 -124t-119 -48q-80 0 -119 48.5t-39 123.5q0 73 40.5 119.5t117.5 47.5zM208 635q-77 0 -77 -92q0 -44 20 -70.5t57 -26.5q76 0 76 97q0 46 -18 69t-58 23zM631 700h113l-531 -700h-113zM208 710
h2q74 0 114.5 -47t40.5 -120q0 -76 -38 -124t-119 -48q-80 0 -119 48.5t-39 123.5q0 74 40 120t118 47z" />
    <glyph glyph-name="guilsinglleft" unicode="&#x2039;" horiz-adv-x="361" 
d="M312 502v-87l-187 -139v-4l187 -138v-87l-262 193v68z" />
    <glyph glyph-name="guilsinglright" unicode="&#x203a;" horiz-adv-x="341" 
d="M50 502l262 -194v-68l-262 -193v87l187 138v4l-187 139v87z" />
    <glyph glyph-name="Euro" unicode="&#x20ac;" horiz-adv-x="660" 
d="M409 311l-18 -60h-147q24 -144 120 -168q17 -4 34 -4q38 0 75.5 18t63.5 45l74 -67q-39 -38 -102.5 -62.5t-120.5 -24.5q-13 0 -24 1q-86 9 -147 80t-80 182h-87l18 60h61q-1 19 -1 38q0 18 1 36h-79l22 60h63q17 113 72.5 183t140.5 81q28 4 53 4q118 0 185 -74l-67 -74
q-23 26 -57 41.5t-69 15.5q-24 0 -45 -7q-89 -32 -106 -170h218l-22 -60h-201q-1 -17 -1 -36t1 -38h172z" />
    <glyph glyph-name="trademark" unicode="&#x2122;" horiz-adv-x="740" 
d="M340 700h76l93 -225l105 225h76v-341h-61v143v98q0 5 0.5 13.5t0.5 14.5v6l-1 1q-11 -33 -18 -50q-11 -26 -32 -70.5t-36 -75.5l-15 -31h-49q-32 73 -48 109q-17 37 -27.5 66t-13.5 39l-2 11l-2 -1q2 -27 2 -41q1 -34 1 -94l-1 -138h-48v341zM50 700h254v-51h-97v-290
h-61v290h-96v51z" />
    <glyph glyph-name="partialdiff" unicode="&#x2202;" horiz-adv-x="587" 
d="M432 346q-29 16 -66 16q-49 0 -99.5 -26t-83 -67.5t-32.5 -82.5q0 -51 53 -86q18 -12 42 -12q64 0 125 73t61 168v17zM296 708q80 -2 136 -46t81.5 -113t25.5 -157q0 -52 -10 -106q-22 -131 -107.5 -215t-181.5 -84q-52 0 -95.5 28t-72.5 85q-19 38 -19 80
q0 65 41.5 124.5t109.5 96.5t141 37q47 0 90 -16q-2 34 -9 63t-22 57t-42.5 45.5t-65.5 20.5q-7 1 -14 1q-21 0 -39.5 -5.5t-31 -13.5t-21.5 -15.5t-13 -13.5l-5 -5l-65 76l8 8t22 18.5t37 23.5t52 18t67 8h3z" />
    <glyph glyph-name="summation" unicode="&#x2211;" horiz-adv-x="658" 
d="M50 700h546v-101h-401l275 -238v-13l-284 -247h422v-101h-558v101l285 245v5l-285 248v0v101z" />
    <glyph glyph-name="radical" unicode="&#x221a;" horiz-adv-x="851" 
d="M718 850h83l-355 -964h-100l-183 477h-113v85h188l171 -455h3z" />
    <glyph glyph-name="infinity" unicode="&#x221e;" horiz-adv-x="853" 
d="M599 420q-20 -4 -41.5 -20.5t-44 -46.5t-39.5 -55t-40 -62q72 -39 148 -39q33 0 58 10.5t38 24t20.5 32.5t9 30.5t1.5 23.5q0 39 -29 71t-68 32q-7 0 -13 -1zM140 319q0 -48 26.5 -85t60.5 -37h2q20 0 40.5 10t36 23t34 36t28.5 38t27 41.5t22 34.5q-63 53 -143 53
q-57 0 -95.5 -30t-38.5 -84zM461 433q85 80 172 80q73 0 121.5 -54.5t48.5 -137.5v-6q-2 -97 -61.5 -146.5t-150.5 -49.5q-105 0 -203 60q-76 -70 -162 -70q-75 0 -125.5 55.5t-50.5 151.5v8q1 31 16.5 63.5t42 61t67 47t86.5 18.5q97 0 199 -81z" />
    <glyph glyph-name="integral" unicode="&#x222b;" horiz-adv-x="558" 
d="M50 -123q63 -30 100 -30q26 0 42.5 13.5t24.5 45.5t11 70t3 100q0 28 -1 92t-1 100v18q0 76 3 132.5t10.5 112.5t22 94t37 68.5t56 45t78.5 14.5q33 0 72 -8v-100q-53 16 -87 16q-58 0 -76.5 -43.5t-18.5 -144.5q0 -25 1.5 -93t1.5 -114q0 -55 -0.5 -90t-2.5 -83.5
t-5 -80t-9.5 -70t-16 -62.5t-23.5 -49.5t-31.5 -39.5t-41.5 -23t-53 -9q-42 0 -96 18v100z" />
    <glyph glyph-name="approxequal" unicode="&#x2248;" horiz-adv-x="741" 
d="M50 352q33 49 92.5 86.5t126.5 37.5q70 0 133 -44q54 -37 103 -37q61 0 116 57l70 -56q-90 -106 -194 -106q-69 0 -141 48q-55 36 -107 36q-71 0 -123 -70zM50 126q33 49 92.5 86.5t126.5 37.5q70 0 133 -44q54 -37 103 -37q61 0 116 57l70 -56q-90 -106 -194 -106
q-69 0 -141 48q-55 36 -107 36q-71 0 -123 -70z" />
    <glyph glyph-name="notequal" unicode="&#x2260;" horiz-adv-x="599" 
d="M353 657h85l-56 -163h168v-80h-195l-41 -120h236v-80h-264l-39 -115h-85l40 115h-152v80h179l41 120h-220v80h248z" />
    <glyph glyph-name="lessequal" unicode="&#x2264;" horiz-adv-x="599" 
d="M550 171v-80h-500v80h500zM550 649v-87l-407 -139v-4l407 -138v-87l-500 187v80z" />
    <glyph glyph-name="greaterequal" unicode="&#x2265;" horiz-adv-x="597" 
d="M50 171h500v-80h-500v80zM50 649l500 -188v-80l-500 -187v87l407 138v4l-407 139v87z" />
    <glyph glyph-name="lozenge" unicode="&#x25ca;" horiz-adv-x="753" 
d="M377 83l200 200l-200 200l-200 -200zM50 283l327 327l327 -327l-327 -327z" />
    </font>
</defs>
</svg>
